<?xml version="1.0" standalone="no"?>
<!DOCTYPE svg PUBLIC "-//W3C//DTD SVG 1.1//EN" "http://www.w3.org/Graphics/SVG/1.1/DTD/svg11.dtd" >
<svg xmlns="http://www.w3.org/2000/svg" xmlns:xlink="http://www.w3.org/1999/xlink" version="1.1">
<metadata>
Created by FontForge 20201107 at Fri May 24 21:06:21 2024
 By 
Copyright 2016 The Inter Project Authors (https://github.com/rsms/inter)
</metadata>
<defs>
<font id="Inter28pt-ExtraBold" horiz-adv-x="0" >
  <font-face 
    font-family="Inter 28pt ExtraBold"
    font-weight="800"
    font-stretch="normal"
    units-per-em="2048"
    panose-1="2 0 5 3 0 0 0 2 0 4"
    ascent="1638"
    descent="-410"
    x-height="1070"
    cap-height="1490"
    bbox="-1669.02 -693 5275 2301"
    underline-thickness="226"
    underline-position="-273"
    unicode-range="U+0020-1F852"
  />
<missing-glyph horiz-adv-x="1344" 
d="M1016 -416h-688v2272h688v-2272zM512 -192v-64h320v64h-215l215 127v65h-320v-64h216zM512 320v-256h320v256h-320zM768 128h-192v128h192v-128zM512 704v-256h320v256h-192v-128h64v64h64v-128h-192v192h-64zM512 832v-64h320v224h-64v-160h-256zM512 960v-64h192v160
h128v64h-320v-64h128v-96h-128zM640 1248h-64v96h64v-96zM512 1408v-224h320v64h-128v160h-192zM512 1536v-64h320v64h-144v96h144v64h-320v-64h112v-96h-112z" />
    <glyph glyph-name=".notdef" horiz-adv-x="1344" 
d="M1016 -416h-688v2272h688v-2272zM512 -192v-64h320v64h-215l215 127v65h-320v-64h216zM512 320v-256h320v256h-320zM768 128h-192v128h192v-128zM512 704v-256h320v256h-192v-128h64v64h64v-128h-192v192h-64zM512 832v-64h320v224h-64v-160h-256zM512 960v-64h192v160
h128v64h-320v-64h128v-96h-128zM640 1248h-64v96h64v-96zM512 1408v-224h320v64h-128v160h-192zM512 1536v-64h320v64h-144v96h144v64h-320v-64h112v-96h-112z" />
    <glyph glyph-name=".null" horiz-adv-x="976" 
 />
    <glyph glyph-name="nonmarkingreturn" horiz-adv-x="682" 
 />
    <glyph glyph-name="space" unicode=" " horiz-adv-x="417" 
 />
    <glyph glyph-name="exclam" unicode="!" horiz-adv-x="573" 
d="M133 458l-30 1032h368l-31 -1032h-307zM287 -19q-80 0 -135 54t-55 133t55 133t135 54t134.5 -54t54.5 -133t-54.5 -133t-134.5 -54z" />
    <glyph glyph-name="quotedbl" unicode="&#x22;" horiz-adv-x="1064" 
d="M178 892l-32 598h313l-32 -598h-249zM637 892l-32 598h313l-32 -598h-249z" />
    <glyph glyph-name="numbersign" unicode="#" horiz-adv-x="1310" 
d="M666 0l245 1490h256l-245 -1490h-256zM2 358l44 256h1177l-44 -256h-1177zM143 0l244 1490h256l-244 -1490h-256zM87 875l44 257h1177l-44 -257h-1177z" />
    <glyph glyph-name="dollar" unicode="$" horiz-adv-x="1365" 
d="M601 -213v1916h183v-1916h-183zM689 -23q-195 0 -334 59.5t-212.5 174.5t-74.5 281h342q3 -71 38 -121.5t97 -77t146 -26.5q76 0 131.5 20t86.5 56.5t31 84.5q0 43 -26.5 74t-82.5 54.5t-144 41.5l-153 33q-213 44 -324 149.5t-111 269.5q0 139 74 243t206 162t305 58
q177 0 306 -58.5t200.5 -166.5t75.5 -258h-335q-7 90 -72 141.5t-172 51.5q-67 0 -118.5 -19.5t-79.5 -54.5t-28 -80q0 -43 25 -72.5t77.5 -51.5t133.5 -39l131 -27q120 -24 208 -62t146 -91t86 -122t28 -156q0 -148 -72 -253.5t-208 -161.5t-327 -56z" />
    <glyph glyph-name="percent" unicode="%" horiz-adv-x="2023" 
d="M490 733q-105 0 -185 47t-125 130t-45 193v40q0 110 45 193.5t125 130.5t185 47q107 0 187 -47t125 -130.5t45 -193.5v-40q0 -110 -45 -193t-125 -130t-187 -47zM490 938q58 0 89.5 42.5t31.5 122.5v40q0 80 -31 124t-90 44q-57 0 -88 -44t-31 -124v-40
q0 -80 31.5 -122.5t87.5 -42.5zM1531 -24q-105 0 -185 46.5t-125 130t-45 192.5v41q0 110 45 193t125 130t185 47q107 0 187 -47t125 -130t45 -193v-41q0 -110 -45.5 -193t-125 -129.5t-186.5 -46.5zM1531 180q58 0 89.5 42.5t31.5 122.5v41q0 80 -31 123.5t-90 43.5
q-57 0 -88 -44t-31 -123v-41q0 -80 31.5 -122.5t87.5 -42.5zM381 0l1024 1490h233l-1024 -1490h-233z" />
    <glyph glyph-name="ampersand" unicode="&#x26;" horiz-adv-x="1366" 
d="M563 -23q-156 0 -270 56t-175 151t-61 212q0 83 30.5 148t91 122t147.5 114l313 201q34 23 55 47.5t31 49.5t10 47q0 44 -32.5 76.5t-93.5 32.5q-39 0 -68 -15t-45 -43t-16 -65q0 -43 22.5 -88.5t65 -98t102.5 -121.5l713 -803h-356l-594 649q-60 68 -115.5 140
t-91.5 152.5t-36 174.5q0 111 52.5 200.5t146.5 141.5t220 52q121 0 209 -49t136 -131t48 -183q0 -67 -23 -129t-66.5 -116t-108.5 -101l-305 -219q-49 -35 -78.5 -73t-29.5 -93q0 -49 24.5 -86t68 -57.5t100.5 -20.5q78 0 153.5 37t137.5 104.5t99.5 157.5t37.5 196h282
q0 -124 -26.5 -236.5t-81.5 -204.5t-141 -156l-92 -50q-84 -62 -187.5 -92.5t-202.5 -30.5z" />
    <glyph glyph-name="quotesingle" unicode="'" horiz-adv-x="605" 
d="M178 892l-32 598h313l-32 -598h-249z" />
    <glyph glyph-name="parenleft" unicode="(" horiz-adv-x="723" 
d="M118 595q0 176 30 357t83 342t123 275h328q-62 -142 -110.5 -306t-76 -334.5t-27.5 -333.5q0 -142 23.5 -279.5t71.5 -285t119 -321.5h-328q-116 195 -176 421t-60 465z" />
    <glyph glyph-name="parenright" unicode=")" horiz-adv-x="723" 
d="M42 -291q71 174 118.5 322t71.5 285t24 279q0 163 -27.5 333.5t-75.5 334.5t-111 306h328q70 -114 123 -275t83 -342.5t30 -356.5q0 -239 -60.5 -465t-175.5 -421h-328z" />
    <glyph glyph-name="asterisk" unicode="*" horiz-adv-x="1162" 
d="M475 652l21 271l-225 -154l-107 184l246 117l-246 117l107 186l225 -154l-21 271h210l-19 -271l225 154l106 -186l-245 -117l245 -117l-106 -184l-225 154l19 -271h-210z" />
    <glyph glyph-name="plus" unicode="+" horiz-adv-x="1373" 
d="M543 56v1050h287v-1050h-287zM162 444v273h1049v-273h-1049z" />
    <glyph glyph-name="comma" unicode="," horiz-adv-x="566" 
d="M60 -344l72 595h328l-163 -595h-237z" />
    <glyph glyph-name="hyphen" unicode="-" horiz-adv-x="934" 
d="M811 718v-268h-688v268h688z" />
    <glyph glyph-name="period" unicode="." horiz-adv-x="566" 
d="M283 -19q-78 0 -133 54.5t-55 133.5q0 78 55 132.5t133 54.5q79 0 133.5 -54.5t54.5 -132.5q0 -79 -54.5 -133.5t-133.5 -54.5z" />
    <glyph glyph-name="slash" unicode="/" horiz-adv-x="786" 
d="M781 1560l-480 -1784h-296l480 1784h296z" />
    <glyph glyph-name="zero" unicode="0" horiz-adv-x="1374" 
d="M687 -23q-196 0 -337 92.5t-216 264.5t-75 410q0 239 75 411t216 265t337 93q197 0 337.5 -93t216 -265t75.5 -411q0 -238 -75 -410t-216 -264.5t-338 -92.5zM687 260q89 0 153 58t98 166.5t34 259.5q0 152 -34 261t-98 167t-153 58q-88 0 -152 -58t-98 -167t-34 -261
q0 -151 34 -259.5t98 -166.5t152 -58z" />
    <glyph glyph-name="one" unicode="1" horiz-adv-x="839" 
d="M739 1490v-1490h-347v1171h-4l-340 -217v307l360 229h331z" />
    <glyph glyph-name="two" unicode="2" horiz-adv-x="1268" 
d="M85 0v256l550 464q56 49 103.5 94.5t76.5 97t29 116.5q0 62 -27 108t-74.5 71.5t-112.5 25.5q-68 0 -119 -30.5t-79 -87.5t-28 -138h-331q0 165 68.5 285t193.5 185.5t296 65.5q161 0 285 -57t194 -161.5t70 -246.5q0 -102 -39.5 -187.5t-117 -169.5t-191.5 -181
l-259 -223v-4h615v-283h-1103z" />
    <glyph glyph-name="three" unicode="3" horiz-adv-x="1300" 
d="M651 -23q-192 0 -322 69.5t-196 185.5t-66 255h343q1 -72 30 -124.5t82.5 -80.5t127.5 -28q69 0 121 24t81.5 67t29.5 100q0 56 -32 98t-90 65.5t-137 23.5h-140v252h140q72 0 125 21.5t82 61t29 92.5q0 56 -26.5 97.5t-72.5 65t-108 23.5q-64 0 -113.5 -25t-77.5 -70.5
t-28 -106.5h-337q0 135 68.5 241.5t193.5 167.5t294 61q159 0 281 -54t191 -147.5t69 -215.5q0 -129 -82 -213t-209 -105v-4q109 -13 184.5 -63t115 -125.5t39.5 -164.5q0 -128 -75 -228.5t-207.5 -158t-307.5 -57.5z" />
    <glyph glyph-name="four" unicode="4" horiz-adv-x="1385" 
d="M68 293v274l628 923h230v-341h-128l-392 -579v-5h913v-272h-1251zM800 0v376l2 122v992h336v-1490h-338z" />
    <glyph glyph-name="five" unicode="5" horiz-adv-x="1260" 
d="M627 -22q-165 0 -290.5 59.5t-199 168.5t-81.5 255h338q2 -61 33 -109t83.5 -75.5t118.5 -27.5q69 0 121.5 31.5t82 87t29.5 128.5q0 74 -29.5 131t-81.5 89t-121 32q-83 0 -143.5 -36t-84.5 -98l-322 13l49 863h983v-285h-673l-25 -311h3q49 54 123.5 83.5t166.5 29.5
q100 0 189 -37.5t158 -105.5t108 -159.5t39 -198.5q0 -154 -71.5 -273.5t-200.5 -187t-302 -67.5z" />
    <glyph glyph-name="six" unicode="6" horiz-adv-x="1306" 
d="M674 -23q-140 0 -253.5 47.5t-194.5 141t-124 231.5t-43 320q0 183 41.5 330t122 251.5t196 159.5t263.5 55q156 0 274.5 -59t189.5 -159.5t83 -225.5h-335q-16 78 -73.5 122.5t-145.5 44.5q-96 0 -159 -52t-93.5 -147.5t-30.5 -224.5h3q37 58 90 98t120 60t144 20
q145 0 257.5 -64t176.5 -175.5t64 -255.5q0 -154 -73 -270.5t-202.5 -182t-297.5 -65.5zM671 252q68 0 121 31.5t84 86t31 123.5t-30.5 123t-83 85.5t-120.5 31.5q-51 0 -93.5 -18t-74.5 -50.5t-49.5 -76.5t-17.5 -95q0 -69 30.5 -123.5t83.5 -86t119 -31.5z" />
    <glyph glyph-name="seven" unicode="7" horiz-adv-x="1166" 
d="M150 0l604 1193v4h-706v293h1070v-287l-606 -1203h-362z" />
    <glyph glyph-name="eight" unicode="8" horiz-adv-x="1302" 
d="M650 -23q-176 0 -309 53.5t-207.5 149.5t-74.5 222q0 100 45.5 178t128.5 128t192 64v2q-145 23 -231 111t-86 223q0 119 69 210.5t191 143t282 51.5q162 0 284.5 -51t190.5 -142t68 -212q0 -135 -86 -223t-231 -111v-2q110 -14 192.5 -64t128.5 -128t46 -178
q0 -126 -75 -222t-208 -149.5t-310 -53.5zM650 227q67 0 119 25.5t81 71.5t29 105q0 60 -29.5 106t-81 72.5t-118.5 26.5q-66 0 -117.5 -26t-81 -72.5t-29.5 -106.5q0 -59 29 -104.5t80.5 -71.5t118.5 -26zM650 891q60 0 105 22.5t70 64t25 95.5q0 55 -25 96t-70 63.5
t-105 22.5t-104.5 -22.5t-69.5 -63.5t-25 -96q0 -54 25 -95.5t70 -64t104 -22.5z" />
    <glyph glyph-name="nine" unicode="9" horiz-adv-x="1306" 
d="M624 -24q-156 0 -275 59.5t-190 160.5t-84 226h336q15 -78 73 -123.5t146 -45.5q97 0 159.5 52.5t93 148.5t30.5 224h-3q-36 -58 -89 -97.5t-119.5 -59.5t-144.5 -20q-144 0 -257 64t-177 176t-64 254q0 155 73 271.5t202.5 182t297.5 65.5q140 0 253.5 -47.5t194 -141
t124 -232t43.5 -320.5q0 -183 -42 -330t-122.5 -251.5t-196 -160t-262.5 -55.5zM633 759q51 0 93.5 18t74 50.5t49.5 76t18 94.5q0 69 -30.5 123t-83 85.5t-119.5 31.5t-120.5 -31t-84.5 -85.5t-31 -123.5t30.5 -123t83.5 -85t120 -31z" />
    <glyph glyph-name="colon" unicode=":" horiz-adv-x="566" 
d="M283 -19q-78 0 -133 54.5t-55 133.5q0 78 55 132.5t133 54.5q79 0 133.5 -54.5t54.5 -132.5q0 -79 -54.5 -133.5t-133.5 -54.5zM283 657q-78 0 -133 54.5t-55 133.5q0 78 55 132.5t133 54.5q79 0 133.5 -54.5t54.5 -132.5q0 -79 -54.5 -133.5t-133.5 -54.5z" />
    <glyph glyph-name="semicolon" unicode=";" horiz-adv-x="572" 
d="M60 -344l72 595h328l-163 -595h-237zM289 657q-78 0 -133 54.5t-55 133.5q0 78 55 132.5t133 54.5q79 0 133.5 -54.5t54.5 -132.5q0 -79 -54.5 -133.5t-133.5 -54.5z" />
    <glyph glyph-name="less" unicode="&#x3c;" horiz-adv-x="1373" 
d="M149 452v295l1048 444v-325l-695 -264l10 17v-39l-10 16l695 -263v-324z" />
    <glyph glyph-name="equal" unicode="=" horiz-adv-x="1373" 
d="M170 706v284h1033v-284h-1033zM170 209v286h1033v-286h-1033z" />
    <glyph glyph-name="greater" unicode="&#x3e;" horiz-adv-x="1373" 
d="M1223 452l-1048 -443v324l698 263l-11 -16v39l11 -17l-698 264v325l1048 -444v-295z" />
    <glyph glyph-name="question" unicode="?" horiz-adv-x="1196" 
d="M412 456v62q0 101 22 164.5t70 107t125 85.5q72 42 108 91.5t36 107.5q0 48 -23 84.5t-64 57t-95 20.5q-58 0 -103 -24.5t-69.5 -69.5t-25.5 -106h-326q0 143 67.5 250t186.5 166t274 59q152 0 268 -51t182 -142t66 -212q0 -118 -52 -207t-151 -152q-59 -38 -103 -72.5
t-67.5 -75t-23.5 -97.5v-46h-302zM567 -19q-80 0 -135 54t-55 133t55 133t135 54t134.5 -54t54.5 -133t-54.5 -133t-134.5 -54z" />
    <glyph glyph-name="at" unicode="@" horiz-adv-x="2097" 
d="M1069 -443q-233 0 -419 67t-318.5 193t-202.5 305t-70 401q0 220 69.5 399.5t200.5 308.5t317 198.5t418 69.5q223 0 402.5 -64.5t307 -184.5t196 -286.5t68.5 -371.5q0 -138 -31 -247t-90.5 -185t-144.5 -115.5t-194 -39.5q-80 0 -138.5 21.5t-92.5 58.5t-42 83h-3
q-25 -66 -101.5 -112t-198.5 -46q-141 0 -245 65.5t-161 182t-57 269.5q0 163 62.5 276.5t167.5 172.5t229 59q100 0 174 -35t102 -88h4v100h231v-680q0 -49 20 -68.5t52 -19.5q55 0 93 40.5t59 116.5t21 182q0 154 -46.5 274.5t-134.5 204.5t-214 127.5t-284 43.5
q-171 0 -305.5 -48.5t-229 -141t-144 -223.5t-49.5 -294q0 -164 50 -294t144 -221.5t228.5 -139.5t304.5 -48q94 0 175.5 13.5t144.5 32t100 34.5l97 -243q-46 -22 -122 -46t-176.5 -40.5t-223.5 -16.5zM1033 266q73 0 123 30.5t76 89t26 141.5q0 85 -26 142.5t-76 87
t-123 29.5q-74 0 -126 -30.5t-79.5 -88t-27.5 -140.5q0 -82 27 -140.5t79 -89.5t127 -31z" />
    <glyph glyph-name="A" unicode="A" horiz-adv-x="1525" 
d="M14 0l509 1490h474l514 -1490h-401l-203 654q-49 164 -96.5 334.5t-97.5 366.5h94q-51 -196 -98 -366.5t-97 -334.5l-207 -654h-391zM363 293v279h800v-279h-800z" />
    <glyph glyph-name="B" unicode="B" horiz-adv-x="1333" 
d="M101 0v1490h619q166 0 279.5 -48t172 -133t58.5 -197q0 -85 -35 -153t-97 -112.5t-146 -62.5v-5q93 -6 168 -51t119 -123.5t44 -184.5q0 -122 -60 -217t-176 -149t-282 -54h-664zM452 278h249q102 0 158.5 45.5t56.5 125.5q0 55 -25.5 95.5t-73 62.5t-113.5 22h-252v-351
zM452 883h228q58 0 101 20t66 57.5t23 87.5q0 76 -50.5 120.5t-137.5 44.5h-230v-330z" />
    <glyph glyph-name="C" unicode="C" horiz-adv-x="1498" 
d="M772 -23q-203 0 -364.5 90.5t-255 262.5t-93.5 414q0 244 93.5 416t255 262.5t364.5 90.5q136 0 251 -39.5t203 -113t144 -177t72 -232.5h-362q-10 59 -36 105t-65 78t-89.5 49t-110.5 17q-114 0 -194 -54.5t-122 -156.5t-42 -245t42 -244.5t122 -155.5t193 -54
q61 0 111 16.5t89 49t65 78t38 104.5h361q-15 -122 -69 -224.5t-141.5 -178t-203.5 -117t-256 -41.5z" />
    <glyph glyph-name="D" unicode="D" horiz-adv-x="1453" 
d="M652 0h-396v300h379q135 0 223.5 48.5t132 147.5t43.5 249t-44 249t-133.5 147.5t-225.5 48.5h-381v300h403q226 0 393 -91t257.5 -258t90.5 -396t-90 -396t-256.5 -258t-395.5 -91zM459 1490v-1490h-358v1490h358z" />
    <glyph glyph-name="E" unicode="E" horiz-adv-x="1264" 
d="M101 0v1490h1093v-302h-735v-292h678v-293h-678v-301h734v-302h-1092z" />
    <glyph glyph-name="F" unicode="F" horiz-adv-x="1211" 
d="M101 0v1490h1061v-302h-703v-331h654v-292h-654v-565h-358z" />
    <glyph glyph-name="G" unicode="G" horiz-adv-x="1518" 
d="M777 -23q-215 0 -376.5 94.5t-251.5 267t-90 405.5q0 243 94 415.5t256 263t363 90.5q131 0 246 -37.5t204 -107.5t145 -166t68 -214h-363q-11 49 -35 88.5t-61 67t-85 42t-108 14.5q-114 0 -195 -54t-124 -155.5t-43 -245.5t43 -245.5t125 -155.5t198 -54q97 0 166.5 33
t107 93t37.5 140l77 -8h-375v263h647v-200q0 -192 -85 -334.5t-236 -221t-349 -78.5z" />
    <glyph glyph-name="H" unicode="H" horiz-adv-x="1491" 
d="M101 0v1490h358v-580h573v580h358v-1490h-358v608h-573v-608h-358z" />
    <glyph glyph-name="I" unicode="I" horiz-adv-x="559" 
d="M459 1490v-1490h-358v1490h358z" />
    <glyph glyph-name="J" unicode="J" horiz-adv-x="1182" 
d="M563 -22q-241 0 -375.5 125t-134.5 358v104h339v-108q0 -90 44 -137t123 -47q78 0 122 47t44 137v1033h357v-1036q0 -229 -136.5 -352.5t-382.5 -123.5z" />
    <glyph glyph-name="K" unicode="K" horiz-adv-x="1461" 
d="M364 272v411q49 69 97.5 134.5t99.5 130.5t107 135l333 407h423l-626 -746l-31 3zM101 0v1490h358v-367l-2 -402l2 -172v-549h-358zM1032 0l-404 638l217 269l601 -907h-414z" />
    <glyph glyph-name="L" unicode="L" horiz-adv-x="1158" 
d="M101 0v1490h358v-1188h652v-302h-1010z" />
    <glyph glyph-name="M" unicode="M" horiz-adv-x="1877" 
d="M101 0v1490h535l192 -584q16 -53 37.5 -132.5t44.5 -167.5t42 -168t31 -136h-86q12 56 31 136t41.5 168t43.5 167.5t37 132.5l189 584h537v-1490h-353v644q0 51 2 126.5t4.5 163.5t5 178t2.5 169h37q-21 -83 -45.5 -174.5t-48 -178.5t-45 -160.5t-36.5 -123.5l-214 -644
h-292l-217 644q-15 50 -37 123.5t-46 160.5t-49 178t-48 175h44q0 -79 2 -168.5t5 -178t5 -164t2 -126.5v-644h-353z" />
    <glyph glyph-name="N" unicode="N" horiz-adv-x="1514" 
d="M101 0v1490h375l422 -676q27 -44 62.5 -108t74.5 -138.5t74 -149.5l-40 -76q-4 76 -8 173t-6 187t-2 145v643h360v-1490h-376l-387 620q-33 54 -75.5 127.5t-91 164.5t-102.5 194l62 23q7 -108 11 -207t5.5 -177.5t1.5 -124.5v-620h-360z" />
    <glyph glyph-name="O" unicode="O" horiz-adv-x="1541" 
d="M771 -23q-202 0 -363.5 91t-255 262.5t-93.5 413.5q0 244 93.5 416t255 262.5t363.5 90.5q201 0 362 -90.5t255.5 -262.5t94.5 -416q0 -243 -94.5 -414.5t-255.5 -262t-362 -90.5zM771 290q107 0 185.5 53t121.5 155t43 246q0 145 -43 247.5t-121.5 155.5t-185.5 53
t-185.5 -53t-121.5 -155.5t-43 -247.5q0 -144 43 -246t121.5 -155t185.5 -53z" />
    <glyph glyph-name="P" unicode="P" horiz-adv-x="1315" 
d="M101 0v1490h609q172 0 297 -62.5t193 -176t68 -267.5t-68.5 -267.5t-194.5 -175.5t-299 -62h-398v294h366q75 0 128.5 26t82 73.5t28.5 111.5q0 65 -28.5 112t-82 72.5t-128.5 25.5h-215v-1194h-358z" />
    <glyph glyph-name="Q" unicode="Q" horiz-adv-x="1545" 
d="M640 531h286l127 -160l156 -179l254 -309h-315l-169 209l-114 144zM771 -23q-202 0 -363.5 91t-255 262.5t-93.5 413.5q0 244 93.5 416t255 262.5t363.5 90.5q201 0 362 -90.5t255.5 -262.5t94.5 -416q0 -243 -94.5 -414.5t-255.5 -262t-362 -90.5zM771 290
q107 0 185.5 53t121.5 155t43 246q0 145 -43 247.5t-121.5 155.5t-185.5 53t-185.5 -53t-121.5 -155.5t-43 -247.5q0 -144 43 -246t121.5 -155t185.5 -53z" />
    <glyph glyph-name="R" unicode="R" horiz-adv-x="1349" 
d="M101 0v1490h613q171 0 296.5 -61t193 -173.5t67.5 -267.5q0 -151 -70.5 -261t-199.5 -169t-305 -59h-378v282h360q75 0 128 25t82 71.5t29 110.5q0 65 -29 111.5t-82 72t-128 25.5h-219v-1197h-358zM932 0l-339 676h373l347 -676h-381z" />
    <glyph glyph-name="S" unicode="S" horiz-adv-x="1365" 
d="M689 -23q-195 0 -334 59.5t-212.5 174.5t-74.5 281h342q3 -71 38 -121.5t97 -77t146 -26.5q76 0 131.5 20t86.5 56.5t31 84.5q0 43 -26.5 74t-82.5 54.5t-144 41.5l-153 33q-213 44 -324 149.5t-111 269.5q0 139 74 243t206 162t305 58q177 0 306 -58.5t200.5 -166.5
t75.5 -258h-335q-7 90 -72 141.5t-172 51.5q-67 0 -118.5 -19.5t-79.5 -54.5t-28 -80q0 -43 25 -72.5t77.5 -51.5t133.5 -39l131 -27q120 -24 208 -62t146 -91t86 -122t28 -156q0 -148 -72 -253.5t-208 -161.5t-327 -56z" />
    <glyph glyph-name="T" unicode="T" horiz-adv-x="1336" 
d="M48 1188v302h1240v-302h-441v-1188h-358v1188h-441z" />
    <glyph glyph-name="U" unicode="U" horiz-adv-x="1453" 
d="M727 -23q-190 0 -331 68.5t-219 192t-78 287.5v965h351v-935q0 -79 35 -140t97 -96t145 -35t145 35t96.5 95.5t34.5 140.5v935h351v-965q0 -164 -78 -287.5t-219 -192t-330 -68.5z" />
    <glyph glyph-name="V" unicode="V" horiz-adv-x="1508" 
d="M526 0l-512 1490h394l209 -654q49 -161 97.5 -334.5t99.5 -363.5h-99q50 190 96 363.5t93 334.5l200 654h390l-499 -1490h-469z" />
    <glyph glyph-name="W" unicode="W" horiz-adv-x="2100" 
d="M412 0l-398 1490h388l148 -662q22 -100 41 -204t37.5 -208t35.5 -205h-76q20 101 39.5 205t40.5 208t44 204l159 662h358l158 -662q24 -100 45 -204t40.5 -208t39.5 -205h-77q18 101 36 205t37.5 208t40.5 204l149 662h388l-398 -1490h-398l-188 739q-24 97 -46.5 221
t-55.5 278h100q-34 -154 -55.5 -277.5t-46.5 -221.5l-187 -739h-399z" />
    <glyph glyph-name="X" unicode="X" horiz-adv-x="1491" 
d="M15 0l628 892v-268l-574 866h407l143 -224q34 -55 64 -107t58.5 -103t57.5 -101h-100q30 50 58.5 101t59.5 103t65 107l146 224h396l-560 -846v252l611 -896h-417l-187 286q-29 46 -54 86.5t-48.5 79.5t-49.5 79h51q-25 -40 -48.5 -79t-49 -80t-56.5 -86l-194 -286h-407z
" />
    <glyph glyph-name="Y" unicode="Y" horiz-adv-x="1472" 
d="M568 0v535l-554 955h412l235 -439q31 -59 59.5 -117.5t56.5 -122.5h-63q26 64 53 123t57 117l224 439h410l-541 -955v-535h-349z" />
    <glyph glyph-name="Z" unicode="Z" horiz-adv-x="1333" 
d="M65 0v258l603 746q62 77 130.5 153t139.5 153l37 -119q-99 -2 -199 -2.5t-201 -0.5h-496v302h1184v-258l-593 -741q-63 -78 -132 -156t-141 -156l-37 120q101 2 202.5 2.5t202.5 0.5h504v-302h-1204z" />
    <glyph glyph-name="bracketleft" unicode="[" horiz-adv-x="723" 
d="M130 -291v1860h522v-264h-179v-1331h179v-265h-522z" />
    <glyph glyph-name="backslash" unicode="\" horiz-adv-x="786" 
d="M485 -224l-480 1784h296l480 -1784h-296z" />
    <glyph glyph-name="bracketright" unicode="]" horiz-adv-x="723" 
d="M71 -291v265h179v1331h-179v264h522v-1860h-522z" />
    <glyph glyph-name="asciicircum" unicode="^" horiz-adv-x="978" 
d="M463 1319h52v-81h-52v81zM48 814l310 646h263l309 -646h-252l-195 452h12l-195 -452h-252z" />
    <glyph glyph-name="underscore" unicode="_" horiz-adv-x="991" 
d="M991 0v-256h-991v256h991z" />
    <glyph glyph-name="grave" unicode="`" horiz-adv-x="679" 
d="M351 1200l-263 319h322l176 -319h-235z" />
    <glyph glyph-name="a" unicode="a" horiz-adv-x="1171" 
d="M421 -19q-106 0 -188 35t-128.5 105.5t-46.5 176.5q0 91 32 152t89 99t131.5 58t158.5 27q95 8 152 18t82 27.5t25 49.5v6q0 33 -18 57t-51 37.5t-79 13.5q-47 0 -83 -14t-57 -40.5t-26 -62.5l-319 9q11 111 71 190.5t167 122.5t257 43q113 0 202 -24.5t151.5 -72
t95 -116t32.5 -156.5v-722h-334v150h-6q-31 -57 -74.5 -94.5t-101.5 -56t-134 -18.5zM526 208q58 0 104.5 22t73.5 61.5t27 92.5v98q-14 -6 -33.5 -12t-44 -11.5t-52.5 -10.5t-58 -10q-47 -7 -82.5 -22.5t-55.5 -40.5t-20 -61q0 -33 18 -57t49.5 -36.5t73.5 -12.5z" />
    <glyph glyph-name="b" unicode="b" horiz-adv-x="1263" 
d="M752 -22q-73 0 -133 22.5t-104 65t-70 101.5h-3v-167h-342v1490h346v-574h2q32 56 75 94.5t101 59.5t131 21q130 0 232 -68t160.5 -192.5t58.5 -294.5q0 -172 -57 -297t-159.5 -193t-237.5 -68zM650 253q65 0 110.5 34.5t70.5 98t25 150.5t-25 150t-70.5 97t-110.5 34
t-114 -34.5t-76 -97.5t-27 -149t27 -149.5t76 -98.5t114 -35z" />
    <glyph glyph-name="c" unicode="c" horiz-adv-x="1177" 
d="M606 -23q-166 0 -289.5 70t-191.5 195.5t-68 291.5t68 291.5t191.5 196t289.5 70.5q110 0 201.5 -31.5t159.5 -88.5t108.5 -135.5t47.5 -174.5l-329 -12q-6 39 -20.5 70.5t-37.5 53.5t-54.5 34t-69.5 12q-65 0 -111 -34.5t-70 -98.5t-24 -153q0 -88 24 -152.5t70.5 -99
t110.5 -34.5q38 0 69.5 12t54.5 34.5t37.5 55t19.5 72.5l330 -11q-5 -97 -44.5 -176t-108 -137t-161 -89.5t-203.5 -31.5z" />
    <glyph glyph-name="d" unicode="d" horiz-adv-x="1263" 
d="M511 -22q-134 0 -237 68t-160 193t-57 297q0 170 58.5 294.5t161 192.5t231.5 68q74 0 131.5 -21t101 -59.5t74.5 -94.5h2v574h346v-1490h-342v167h-3q-26 -59 -70 -101.5t-103.5 -65t-133.5 -22.5zM613 253q65 0 114 35t76 98.5t27 149.5t-27 149t-76 97.5t-114 34.5
q-64 0 -110.5 -34t-71 -97t-24.5 -150t25 -150.5t71 -98t110 -34.5z" />
    <glyph glyph-name="e" unicode="e" horiz-adv-x="1184" 
d="M605 -23q-165 0 -288.5 70t-191.5 196t-68 291q0 164 68 289.5t189.5 197t280.5 71.5q119 0 217 -39.5t169.5 -112t111 -173.5t39.5 -225v-92h-961v205h798l-158 -43q0 70 -25 120.5t-71.5 78t-112.5 27.5q-65 0 -111.5 -27.5t-71.5 -77.5t-25 -120v-150
q0 -74 26.5 -127.5t76.5 -81.5t119 -28q50 0 89.5 14t66.5 39.5t40 60.5l310 -11q-21 -104 -93 -183.5t-181 -124t-243 -44.5z" />
    <glyph glyph-name="f" unicode="f" horiz-adv-x="819" 
d="M775 1070v-265h-756v265h756zM211 0v1174q0 112 41.5 185.5t124.5 110t205 36.5q63 0 120.5 -3t81.5 -4l-12 -264q-16 1 -47.5 2t-56.5 1q-62 0 -87 -26t-25 -84v-1128h-345z" />
    <glyph glyph-name="g" unicode="g" horiz-adv-x="1264" 
d="M620 -434q-159 0 -267.5 43.5t-169 119.5t-77.5 175l323 13q9 -32 34.5 -56t64.5 -37.5t91 -13.5q99 0 150.5 52t51.5 156v170h-6q-26 -59 -70 -99t-102.5 -60t-131.5 -20q-134 0 -236.5 66t-160 186t-57.5 282q0 166 58.5 289t161 191t232.5 68q73 0 131.5 -22t103 -62
t74.5 -95h3v158h343v-1020q0 -167 -67 -274.5t-189 -158.5t-288 -51zM613 275q66 0 114.5 33.5t75.5 95t27 144.5q0 84 -27 145.5t-75.5 95t-114.5 33.5q-64 0 -110 -33t-71 -94.5t-25 -146.5t25 -146t71 -94t110 -33z" />
    <glyph glyph-name="h" unicode="h" horiz-adv-x="1247" 
d="M446 588v-588h-346v1490h344v-703h-48q48 138 139.5 221t242.5 83q116 0 198 -50t126.5 -143.5t44.5 -223.5v-674h-346v604q0 94 -45.5 144t-128.5 50q-55 0 -96 -23t-63 -69.5t-22 -117.5z" />
    <glyph glyph-name="i" unicode="i" horiz-adv-x="546" 
d="M100 0v1070h346v-1070h-346zM272 1179q-81 0 -134.5 49t-53.5 124q0 74 53.5 123t133.5 49q82 0 135 -49t53 -124q0 -74 -53 -123t-134 -49z" />
    <glyph glyph-name="j" unicode="j" horiz-adv-x="547" 
d="M101 1070h346v-1131q0 -120 -46 -199t-135 -118.5t-220 -39.5h-120v267h64q60 0 85.5 28t25.5 91v1102zM274 1179q-81 0 -134.5 49t-53.5 124q0 74 53.5 123t133.5 49q82 0 135 -49t53 -124q0 -74 -53 -123t-134 -49z" />
    <glyph glyph-name="k" unicode="k" horiz-adv-x="1174" 
d="M411 279v409h41l321 382h397l-465 -551h-90zM100 0v1490h346v-1490h-346zM788 0l-295 443l226 242l468 -685h-399z" />
    <glyph glyph-name="l" unicode="l" horiz-adv-x="546" 
d="M446 1490v-1490h-346v1490h346z" />
    <glyph glyph-name="m" unicode="m" horiz-adv-x="1859" 
d="M100 0v1070h329l5 -256h-19q27 96 78 157t119 90.5t143 29.5q120 0 206.5 -71t109.5 -212h-32q21 94 74 157t128.5 94.5t160.5 31.5q104 0 184.5 -45t126.5 -129.5t46 -202.5v-714h-346v637q0 84 -44.5 129t-113.5 45q-49 0 -85 -22.5t-55.5 -62t-19.5 -93.5v-633h-331
v642q0 77 -43 123t-113 46q-47 0 -83.5 -22t-57.5 -63t-21 -100v-626h-346z" />
    <glyph glyph-name="n" unicode="n" horiz-adv-x="1247" 
d="M446 588v-588h-346v1070h337l2 -283h-43q48 138 139.5 221t242.5 83q116 0 198 -50t126.5 -143.5t44.5 -223.5v-674h-346v604q0 94 -45.5 144t-128.5 50q-55 0 -96 -23t-63 -69.5t-22 -117.5z" />
    <glyph glyph-name="o" unicode="o" horiz-adv-x="1227" 
d="M614 -23q-168 0 -293.5 69t-194.5 194t-69 294q0 168 69 293t194.5 195t293.5 70t293 -70t194 -195t69 -293q0 -169 -69 -294t-194 -194t-293 -69zM614 249q61 0 107.5 34t72.5 98t26 153q0 91 -26 154t-72.5 97t-107.5 34q-62 0 -109 -33.5t-72.5 -97t-25.5 -154.5
q0 -90 25.5 -153.5t72.5 -97.5t109 -34z" />
    <glyph glyph-name="p" unicode="p" horiz-adv-x="1263" 
d="M100 -418v1488h342v-150h6q29 53 73 91t102.5 59t131.5 21q130 0 232 -68t160.5 -192.5t58.5 -294.5q0 -172 -57 -297t-159.5 -193t-237.5 -68q-73 0 -131.5 22.5t-101.5 63.5t-69 98h-4v-580h-346zM650 253q65 0 110.5 34.5t70.5 98t25 150.5t-25 150t-70.5 97
t-110.5 34t-114 -34.5t-76 -97.5t-27 -149t27 -149.5t76 -98.5t114 -35z" />
    <glyph glyph-name="q" unicode="q" horiz-adv-x="1263" 
d="M1163 -418h-346v580h-4q-26 -57 -69 -98t-101 -63.5t-132 -22.5q-134 0 -237 68t-160 193t-57 297q0 170 58.5 294.5t161 192.5t231.5 68q74 0 132 -21t102 -59t73 -91h6v150h342v-1488zM613 253q65 0 114 35t76 98.5t27 149.5t-27 149t-76 97.5t-114 34.5
q-64 0 -110.5 -34t-71 -97t-24.5 -150t25 -150.5t71 -98t110 -34.5z" />
    <glyph glyph-name="r" unicode="r" horiz-adv-x="818" 
d="M100 0v1070h335v-190h4q30 103 93 149.5t166 46.5q27 0 50.5 -1t44.5 -3v-288q-20 2 -60 4t-76 2q-62 0 -110 -28t-74.5 -80t-26.5 -126v-556h-346z" />
    <glyph glyph-name="s" unicode="s" horiz-adv-x="1119" 
d="M568 -25q-146 0 -258.5 43.5t-180 124t-79.5 191.5l336 11q11 -61 56.5 -96t123.5 -35q72 0 112.5 25t40.5 66q0 35 -33 57t-97 34l-192 35q-159 29 -240.5 108t-81.5 205q0 106 57.5 183.5t164.5 120t255 42.5q147 0 254 -43t168 -121.5t67 -187.5l-315 -11
q-4 55 -49 90.5t-114 35.5q-66 0 -105 -26t-39 -65q0 -34 29.5 -56.5t87.5 -34.5l212 -38q165 -31 243 -102t78 -189q0 -110 -63 -192.5t-176.5 -128.5t-261.5 -46z" />
    <glyph glyph-name="t" unicode="t" horiz-adv-x="799" 
d="M751 1070v-265h-732v265h732zM192 1353h346v-1001q0 -49 20.5 -68.5t75.5 -19.5q24 0 61 0.5t53 1.5l10 -263q-34 -4 -89 -5.5t-111 -1.5q-187 0 -276.5 74.5t-89.5 229.5v1053z" />
    <glyph glyph-name="u" unicode="u" horiz-adv-x="1247" 
d="M469 -21q-115 0 -198 50t-127 143.5t-44 223.5v674h346v-604q0 -93 45.5 -143.5t128.5 -50.5q55 0 95.5 23t63 69.5t22.5 117.5v588h346v-1070h-338l-1 283h43q-48 -138 -139.5 -221t-242.5 -83z" />
    <glyph glyph-name="v" unicode="v" horiz-adv-x="1190" 
d="M398 0l-390 1070h362l156 -500q31 -103 58.5 -206.5t54.5 -209.5h-78q26 106 52.5 209.5t56.5 206.5l153 500h358l-389 -1070h-394z" />
    <glyph glyph-name="w" unicode="w" horiz-adv-x="1739" 
d="M332 0l-325 1070h362l82 -342q27 -116 53.5 -243t51.5 -256h-44q28 129 58 256t59 243l88 342h306l87 -342q29 -116 58.5 -243t57.5 -256h-43q25 129 50 255.5t51 243.5l80 342h369l-326 -1070h-356l-116 396q-16 58 -32 122t-31.5 130t-31.5 127h59q-15 -61 -31 -127
t-31.5 -130t-32.5 -122l-117 -396h-355z" />
    <glyph glyph-name="x" unicode="x" horiz-adv-x="1145" 
d="M11 0l422 630l-7 -161l-389 601h371l75 -131q41 -74 76 -143l70 -138h-104q37 69 72 138t78 143l78 131h365l-402 -601l6 161l413 -630h-373l-86 145q-41 72 -76.5 139.5t-71.5 134.5h90q-37 -67 -72 -134.5t-77 -139.5l-88 -145h-370z" />
    <glyph glyph-name="y" unicode="y" horiz-adv-x="1191" 
d="M125 -412l17 264l124 -3q42 -3 69 6.5t43 33.5t25 64l14 48l-409 1069h362l159 -500q31 -102 57.5 -205.5t53.5 -210.5h-92q26 107 53.5 211t60.5 205l163 500h358l-459 -1212q-35 -94 -84.5 -156t-119 -92t-166.5 -30q-58 0 -117.5 2t-111.5 6z" />
    <glyph glyph-name="z" unicode="z" horiz-adv-x="1126" 
d="M101 0v220l506 578v3h-502v269h909v-236l-489 -563v-4h499v-267h-923z" />
    <glyph glyph-name="braceleft" unicode="{" horiz-adv-x="957" 
d="M123 606v186q126 0 175.5 50.5t49.5 160.5v153q0 144 41.5 227.5t115.5 123t172 51t209 11.5v-259q-122 0 -163.5 -43t-41.5 -150v-201q0 -55 -22 -110t-81.5 -100t-169 -72.5t-285.5 -27.5zM886 -291q-111 0 -209 12t-172 51.5t-115.5 123t-41.5 226.5v153
q0 110 -49.5 160.5t-175.5 50.5v187q176 0 285.5 -28t169 -73t81.5 -100t22 -110v-200q0 -108 41.5 -150.5t163.5 -42.5v-260zM123 486v307h313v-307h-313z" />
    <glyph glyph-name="bar" unicode="|" horiz-adv-x="761" 
d="M547 1970v-2450h-334v2450h334z" />
    <glyph glyph-name="braceright" unicode="}" horiz-adv-x="957" 
d="M833 606q-175 0 -285 27.5t-169 72.5t-81 100t-22 110v201q0 107 -41.5 150t-163.5 43v259q112 0 209 -11.5t171 -51t116 -123t42 -227.5v-153q0 -110 49.5 -160.5t174.5 -50.5v-186zM71 -291v260q122 0 163.5 42.5t41.5 150.5v200q0 55 22 110t81 100t169 73t285 28
v-187q-125 0 -174.5 -50.5t-49.5 -160.5v-153q0 -143 -42 -226.5t-116 -123t-171 -51.5t-209 -12zM833 486h-312v307l312 -1v-306z" />
    <glyph glyph-name="asciitilde" unicode="~" horiz-adv-x="1373" 
d="M137 392q-5 142 32 243t111 154.5t179 53.5q67 0 129.5 -27t142.5 -98q39 -34 67 -53.5t66 -19.5q48 0 81 39.5t30 126.5h260q5 -142 -33.5 -243t-112 -155t-175.5 -54q-72 0 -136 29.5t-139 95.5q-43 39 -68 56t-62 17q-49 0 -81.5 -38t-29.5 -127h-261z" />
    <glyph glyph-name="uni00A0" unicode="&#xa0;" horiz-adv-x="417" 
 />
    <glyph glyph-name="exclamdown" unicode="&#xa1;" horiz-adv-x="576" 
d="M103 -407l31 1022h308l31 -1022h-370zM288 717q-81 0 -136 54.5t-55 133.5q0 80 55 134.5t136 54.5q80 0 135.5 -54.5t55.5 -134.5q0 -79 -55.5 -133.5t-135.5 -54.5z" />
    <glyph glyph-name="cent" unicode="&#xa2;" horiz-adv-x="1177" 
d="M552 0v1490h115v-1490h-115zM606 187q-166 0 -289.5 70.5t-191.5 196t-68 290.5q0 167 68 292.5t191.5 195.5t289.5 70q110 0 201.5 -31t159.5 -88t108.5 -136t47.5 -175l-329 -12q-6 40 -20.5 71t-37.5 53.5t-54.5 34.5t-69.5 12q-65 0 -111 -34.5t-70 -98.5t-24 -153
q0 -88 24 -152.5t70.5 -99t110.5 -34.5q38 0 69.5 12t54.5 34.5t37.5 55t19.5 72.5l330 -11q-5 -97 -44.5 -176t-108 -137t-161 -90t-203.5 -32z" />
    <glyph glyph-name="sterling" unicode="&#xa3;" horiz-adv-x="1286" 
d="M65 232v56q79 0 120.5 34t36.5 106l-35 557q-11 170 58.5 287.5t192.5 179t273 61.5q146 0 259.5 -60.5t180.5 -171.5t72 -262l-329 -11q-2 113 -48.5 165t-128.5 52q-59 0 -101.5 -24t-63.5 -73t-19 -123l19 -519q3 -73 -27 -120t-82.5 -74.5t-118 -40t-133 -16
t-126.5 -3.5zM64 0v288h800q22 0 32.5 11t10.5 32v54h324v-59q0 -158 -90 -242t-260 -84h-817zM64 603v254h787v-254h-787z" />
    <glyph glyph-name="currency" unicode="&#xa4;" horiz-adv-x="1559" 
d="M780 -20q-128 0 -240 47.5t-197 133t-133 200t-47 247.5q-1 133 47 247t133 199t197 132.5t240 47.5q126 0 237.5 -47.5t197 -132.5t134 -199t48.5 -247t-48.5 -247.5t-134 -200t-197 -133t-237.5 -47.5zM780 178q117 0 213.5 56.5t153.5 154.5t57 219q0 123 -57 220
t-153.5 153.5t-213.5 56.5q-119 0 -215.5 -56.5t-153 -153.5t-56.5 -220q0 -121 56.5 -219t153 -154.5t215.5 -56.5zM1229 912l-145 148l207 208l149 -150zM1291 -28l-207 206l145 146l211 -202zM271 -28l-145 150l207 202l148 -146zM333 912l-207 206l145 150l210 -208z
" />
    <glyph glyph-name="yen" unicode="&#xa5;" horiz-adv-x="1154" 
d="M370 1490l287 -729l-232 -190l-410 919h355zM501 768l283 722h357l-414 -919zM745 785v-785h-346v785h346zM1031 776v-193h-948v193h948zM1031 488v-193h-948v193h948z" />
    <glyph glyph-name="brokenbar" unicode="&#xa6;" horiz-adv-x="719" 
d="M205 419h308v-699h-308v699zM513 1490v-696h-308v696h308z" />
    <glyph glyph-name="section" unicode="&#xa7;" horiz-adv-x="1117" 
d="M555 -300q-138 0 -241 48t-162 136t-63 206l299 11q3 -60 46 -93t120 -33q69 0 108.5 26.5t39.5 76.5q0 33 -17 58t-49 44.5t-78 33.5l-256 85q-75 25 -129.5 68.5t-84 103t-29.5 128.5q0 73 30 123.5t77.5 78.5t100.5 32v2q-72 49 -115.5 120.5t-43.5 179.5
q0 176 117.5 277t320.5 101q204 0 321 -102t124 -281l-300 -11q-3 57 -39 88.5t-105 31.5q-64 0 -99.5 -28t-35.5 -78q0 -35 19 -63t54 -48.5t84 -35.5l254 -83q73 -22 125.5 -64.5t81 -99t28.5 -123.5q0 -70 -30.5 -123.5t-78.5 -85t-103 -38.5v-1q57 -31 93 -77.5
t52.5 -102t16.5 -113.5q0 -113 -57 -198t-158.5 -131t-237.5 -46zM663 441q21 -7 49 0t50.5 29.5t27.5 60.5q4 29 -5 58t-36.5 54t-77.5 40l-220 76q-22 8 -50 1.5t-51 -28.5t-29 -61q-6 -35 7 -66t42.5 -55t72.5 -38z" />
    <glyph glyph-name="dieresis" unicode="&#xa8;" horiz-adv-x="1247" 
d="M851 1185q-76 0 -126.5 48t-50.5 120q0 73 50.5 120.5t126.5 47.5t126 -47.5t50 -120.5q0 -72 -50 -120t-126 -48zM396 1185q-77 0 -127 48t-50 120q0 73 50 120.5t127 47.5q76 0 126 -47.5t50 -120.5q0 -72 -50 -120t-126 -48z" />
    <glyph glyph-name="copyright" unicode="&#xa9;" horiz-adv-x="1841" 
d="M522 744q0 112 54.5 203.5t146.5 146.5t204 55q99 0 182 -43.5t136.5 -117.5t63.5 -168h-226q-10 49 -55 80.5t-101 31.5q-51 0 -93.5 -25t-68.5 -67.5t-26 -94.5q0 -51 26 -93.5t68.5 -68t93.5 -25.5q57 0 99.5 31t52.5 80h226q-10 -93 -63 -167.5t-134.5 -117.5
t-180.5 -43q-111 0 -203.5 54.5t-147 146t-54.5 202.5zM921 -23q-159 0 -298 59.5t-245 165.5t-165.5 245t-59.5 298t59.5 298t165.5 245t245 165.5t298 59.5t298 -59.5t245 -165.5t165.5 -245t59.5 -298t-59.5 -298t-165.5 -245t-245 -165.5t-298 -59.5zM921 238
q105 0 196.5 39.5t161.5 109t109.5 161.5t39.5 197t-39.5 197t-109.5 161.5t-161.5 109t-196.5 39.5t-197 -39.5t-162 -109t-109 -161.5t-39 -197t39 -197t109 -161.5t162 -109t197 -39.5z" />
    <glyph glyph-name="ordfeminine" unicode="&#xaa;" horiz-adv-x="934" 
d="M338 639q-84 0 -150 27.5t-103.5 83t-37.5 139.5q0 94 45 149t119.5 81.5t163.5 33.5q77 7 123 14.5t66.5 21.5t20.5 39v5q0 39 -32.5 63t-89.5 24q-59 0 -94.5 -25t-42.5 -68l-249 6q9 87 57 150t133 97t204 34q88 0 158.5 -20t120.5 -57t76.5 -91t26.5 -123v-570h-262
v119h-4q-36 -66 -96.5 -99.5t-152.5 -33.5zM419 816q48 0 86.5 18t60 49.5t21.5 73.5v78q-14 -7 -37.5 -13t-54 -11.5t-64.5 -10.5q-57 -10 -92.5 -33.5t-35.5 -65.5q0 -40 32.5 -62.5t83.5 -22.5z" />
    <glyph glyph-name="guillemotleft" unicode="&#xab;" horiz-adv-x="1359" 
d="M442 144l-376 447l376 447h376l-369 -447l369 -447h-376zM936 144l-376 447l376 447h376l-369 -447l369 -447h-376z" />
    <glyph glyph-name="logicalnot" unicode="&#xac;" horiz-adv-x="1373" 
d="M855 306v218h-647v273h934v-491h-287z" />
    <glyph glyph-name="registered" unicode="&#xae;" horiz-adv-x="1321" 
d="M660 346q-120 0 -225.5 45.5t-185 125.5t-125 185.5t-45.5 225.5t45.5 225.5t125 185.5t185 125.5t225.5 45.5q121 0 226.5 -45.5t185.5 -125.5t125 -185.5t45 -225.5t-45 -225.5t-125 -185.5t-185.5 -125.5t-226.5 -45.5zM660 504q118 0 214.5 57t153.5 153.5t57 213.5
t-57.5 213t-153.5 153.5t-214 57.5q-117 0 -213.5 -57.5t-153.5 -153.5t-57 -213t57 -213t153.5 -153.5t213.5 -57.5zM750 663l-109 244h158l120 -244h-169zM439 663v536h246q67 0 115 -23t74.5 -65t26.5 -100q0 -57 -27.5 -97.5t-77.5 -63t-119 -22.5h-142v119h133
q34 0 54.5 17t20.5 46t-20.5 46t-53.5 17h-71v-410h-159z" />
    <glyph glyph-name="macron" unicode="&#xaf;" horiz-adv-x="802" 
d="M695 1451v-210h-588v210h588z" />
    <glyph glyph-name="degree" unicode="&#xb0;" horiz-adv-x="913" 
d="M457 773q-101 0 -183.5 48.5t-131.5 131t-49 182.5q0 101 49 183.5t131.5 131.5t183.5 49q100 0 182.5 -49t131.5 -131.5t49 -183.5q0 -100 -49 -182.5t-131.5 -131t-182.5 -48.5zM457 995q39 1 70.5 19.5t50.5 50.5t19 70q0 40 -19 71.5t-50.5 50t-70.5 18.5t-71 -18.5
t-50.5 -50t-18.5 -70.5t19 -71t50.5 -50.5t70.5 -19.5z" />
    <glyph glyph-name="plusminus" unicode="&#xb1;" horiz-adv-x="1373" 
d="M162 52v270h1047v-270h-1047zM162 663v259h1047v-259h-1047zM542 423v739h287v-739h-287z" />
    <glyph glyph-name="two.sups" unicode="&#xb2;" horiz-adv-x="851" 
d="M77 865v178l342 249q27 19 53.5 39t44 43.5t17.5 55.5q0 40 -31.5 65t-81.5 25q-54 0 -87.5 -30.5t-33.5 -87.5h-234q0 145 96 228t259 83q156 0 254 -71t98 -196q0 -46 -13.5 -85t-41 -74.5t-71 -69.5t-102.5 -70l-122 -82v-3h355v-197h-701z" />
    <glyph glyph-name="three.sups" unicode="&#xb3;" horiz-adv-x="873" 
d="M439 853q-122 0 -204.5 41.5t-124 110t-41.5 147.5h242q0 -51 34.5 -79.5t92.5 -28.5q53 0 87 22.5t34 58.5q0 37 -36.5 59.5t-96.5 22.5h-96v162h96q58 0 91 21t33 57t-30.5 58.5t-79.5 22.5q-50 0 -83 -24.5t-33 -62.5h-239q1 78 44.5 139.5t123.5 97t188 35.5
q101 0 179 -30.5t121.5 -84t43.5 -123.5q0 -74 -52 -119.5t-131 -52.5v-3q106 -9 159.5 -65t53.5 -131q0 -72 -47.5 -129t-132 -89.5t-196.5 -32.5z" />
    <glyph glyph-name="acute" unicode="&#xb4;" horiz-adv-x="679" 
d="M92 1200l176 319h323l-264 -319h-235z" />
    <glyph glyph-name="uni00B5" unicode="&#xb5;" horiz-adv-x="1275" 
d="M100 -418v1488h345v-606q0 -66 22 -112t62 -69.5t95 -23.5q56 0 95.5 23.5t60.5 69.5t21 112v606h346v-729q0 -37 18 -55.5t57 -18.5h50v-267h-162q-148 0 -220.5 77.5t-72.5 222.5v101h53q0 -112 -20.5 -185.5t-55 -116.5t-76 -61t-82.5 -18q-43 0 -86 18t-78.5 61
t-57 116.5t-21.5 185.5h52v-819h-345z" />
    <glyph glyph-name="paragraph" unicode="&#xb6;" horiz-adv-x="1188" 
d="M1070 1229h-427v-677h-87q-164 0 -278 61t-172.5 167.5t-58.5 241.5q0 134 58.5 239.5t172.5 167t278 61.5h514v-261zM823 0v1490h265v-1490h-265z" />
    <glyph glyph-name="periodcentered" unicode="&#xb7;" horiz-adv-x="566" 
d="M283 518q-78 0 -133 54.5t-55 133.5q0 78 55 132.5t133 54.5q79 0 133.5 -54.5t54.5 -132.5q0 -79 -54.5 -133.5t-133.5 -54.5z" />
    <glyph glyph-name="cedilla" unicode="&#xb8;" horiz-adv-x="795" 
d="M260 -418v129h121q43 0 64 14.5t21 43.5q0 28 -21 42.5t-64 14.5h-86l39 216h127v-42l-2 -80q91 1 141 -44.5t50 -118.5q0 -87 -62 -131t-180 -44h-148z" />
    <glyph glyph-name="one.sups" unicode="&#xb9;" horiz-adv-x="589" 
d="M510 1700v-835h-246v616h-3l-204 -115v209l218 125h235z" />
    <glyph glyph-name="ordmasculine" unicode="&#xba;" horiz-adv-x="978" 
d="M489 635q-132 0 -232 54.5t-155.5 153.5t-55.5 231q0 133 55.5 231.5t155 153.5t232.5 55q134 0 233 -55t154.5 -153.5t55.5 -231.5q0 -132 -55.5 -231t-154.5 -153.5t-233 -54.5zM489 848q51 0 89.5 27t59.5 77.5t21 121.5q0 72 -21 122.5t-59.5 77.5t-89.5 27
q-50 0 -88.5 -27t-60 -77.5t-21.5 -122.5q0 -71 21 -121.5t60 -77.5t89 -27z" />
    <glyph glyph-name="guillemotright" unicode="&#xbb;" horiz-adv-x="1359" 
d="M47 144l369 447l-369 447h377l376 -447l-376 -447h-377zM541 144l369 447l-369 447h377l376 -447l-376 -447h-377z" />
    <glyph glyph-name="onequarter" unicode="&#xbc;" horiz-adv-x="1693" 
d="M452 1490v-835h-216v640h-3l-183 -120v188l194 127h208zM158 0l1024 1490h233l-1024 -1490h-233zM933 151v170l334 514h145v-213h-81l-190 -299v-4h494v-168h-702zM1332 0v203l2 75v557h208v-835h-210z" />
    <glyph glyph-name="onehalf" unicode="&#xbd;" horiz-adv-x="1756" 
d="M452 1490v-835h-216v640h-3l-183 -120v188l194 127h208zM158 0l1024 1490h233l-1024 -1490h-233zM1069 0v157l306 257q39 34 71.5 70t32.5 88q0 47 -29 75.5t-75 28.5q-49 0 -79.5 -33.5t-30.5 -95.5h-206q0 139 86 219.5t230 80.5q140 0 227 -70.5t87 -190.5
q0 -56 -21.5 -104t-66 -96.5t-114.5 -108.5l-114 -99v-3h320v-175h-624z" />
    <glyph glyph-name="threequarters" unicode="&#xbe;" horiz-adv-x="1870" 
d="M391 642q-108 0 -182 39t-111.5 103.5t-37.5 141.5h214q0 -52 31.5 -82t85.5 -30q48 0 79 26t31 68q0 43 -34 68.5t-91 25.5h-83v154h83q53 0 84 24t31 65q0 40 -27.5 65.5t-70.5 25.5q-47 0 -77.5 -27t-30.5 -71h-209q0 76 39 135.5t110.5 94t167.5 34.5q90 0 159 -30.5
t108 -83.5t39 -122q0 -74 -47 -119.5t-116 -55.5v-3q95 -10 142.5 -65.5t47.5 -130.5q0 -109 -93.5 -179.5t-241.5 -70.5zM335 0l1024 1490h233l-1024 -1490h-233zM1110 151v170l334 514h145v-213h-81l-190 -299v-4h494v-168h-702zM1509 0v203l2 75v557h208v-835h-210z" />
    <glyph glyph-name="questiondown" unicode="&#xbf;" horiz-adv-x="1196" 
d="M784 613v-61q0 -101 -22 -164.5t-70 -107t-125 -86.5q-72 -41 -108 -90t-36 -108q0 -48 23 -84.5t64 -57t95 -20.5q59 0 103.5 24.5t69 69.5t24.5 106h327q-1 -143 -68 -250t-186 -166t-274 -59q-151 0 -267.5 50.5t-182.5 142t-66 212.5q0 118 52 207t151 152
q60 39 103 73t67 74.5t24 97.5v45h302zM629 1089q80 0 135 -54t55 -133t-55 -133t-135 -54t-134.5 54t-54.5 133t54.5 133t134.5 54z" />
    <glyph glyph-name="Agrave" unicode="&#xc0;" horiz-adv-x="1525" 
d="M14 0l509 1490h474l514 -1490h-401l-203 654q-49 164 -96.5 334.5t-97.5 366.5h94q-51 -196 -98 -366.5t-97 -334.5l-207 -654h-391zM363 293v279h800v-279h-800zM659 1620l-263 319h322l176 -319h-235z" />
    <glyph glyph-name="Aacute" unicode="&#xc1;" horiz-adv-x="1525" 
d="M14 0l509 1490h474l514 -1490h-401l-203 654q-49 164 -96.5 334.5t-97.5 366.5h94q-51 -196 -98 -366.5t-97 -334.5l-207 -654h-391zM363 293v279h800v-279h-800zM631 1620l176 319h323l-264 -319h-235z" />
    <glyph glyph-name="Acircumflex" unicode="&#xc2;" horiz-adv-x="1525" 
d="M14 0l509 1490h474l514 -1490h-401l-203 654q-49 164 -96.5 334.5t-97.5 366.5h94q-51 -196 -98 -366.5t-97 -334.5l-207 -654h-391zM363 293v279h800v-279h-800zM632 1626h-265v2l262 311h263l267 -311v-2h-266l-132 164z" />
    <glyph glyph-name="Atilde" unicode="&#xc3;" horiz-adv-x="1525" 
d="M14 0l509 1490h474l514 -1490h-401l-203 654q-49 164 -96.5 334.5t-97.5 366.5h94q-51 -196 -98 -366.5t-97 -334.5l-207 -654h-391zM363 293v279h800v-279h-800zM906 1637q-52 0 -90.5 16.5t-67.5 39t-54 39t-51 16.5q-33 0 -50.5 -28t-19.5 -76h-180q3 141 66 213.5
t160 72.5q52 0 90.5 -16t67.5 -37.5t54 -38t51 -16.5q38 0 54.5 26.5t18.5 76.5h177q-2 -140 -66.5 -214t-159.5 -74z" />
    <glyph glyph-name="Adieresis" unicode="&#xc4;" horiz-adv-x="1525" 
d="M14 0l509 1490h474l514 -1490h-401l-203 654q-49 164 -96.5 334.5t-97.5 366.5h94q-51 -196 -98 -366.5t-97 -334.5l-207 -654h-391zM363 293v279h800v-279h-800zM990 1605q-76 0 -126.5 48t-50.5 120q0 73 50.5 120.5t126.5 47.5t126 -47.5t50 -120.5q0 -72 -50 -120
t-126 -48zM535 1605q-77 0 -127 48t-50 120q0 73 50 120.5t127 47.5q76 0 126 -47.5t50 -120.5q0 -72 -50 -120t-126 -48z" />
    <glyph glyph-name="Aring" unicode="&#xc5;" horiz-adv-x="1525" 
d="M14 0l509 1490h474l514 -1490h-401l-203 654q-49 164 -96.5 334.5t-97.5 366.5h94q-51 -196 -98 -366.5t-97 -334.5l-207 -654h-391zM363 293v279h800v-279h-800zM763 1567q-77 0 -136 31t-93 85.5t-34 123.5t33.5 123t93 85.5t135.5 31.5q77 0 136 -31.5t93 -85.5
t34 -123t-34 -123.5t-93 -85.5t-135 -31zM763 1706q44 0 72.5 28.5t28.5 72.5t-28.5 72t-73.5 28q-44 0 -73 -28.5t-29 -71.5q0 -44 29 -72.5t74 -28.5z" />
    <glyph glyph-name="AE" unicode="&#xc6;" horiz-adv-x="2122" 
d="M14 0l606 1490h1431v-302h-735v-294h678v-294h-678v-298h735v-302h-1079v1203h-114l-469 -1203h-375zM365 321v263h733v-263h-733z" />
    <glyph glyph-name="Ccedilla" unicode="&#xc7;" horiz-adv-x="1498" 
d="M772 -23q-203 0 -364.5 90.5t-255 262.5t-93.5 414q0 244 93.5 416t255 262.5t364.5 90.5q136 0 251 -39.5t203 -113t144 -177t72 -232.5h-362q-10 59 -36 105t-65 78t-89.5 49t-110.5 17q-114 0 -194 -54.5t-122 -156.5t-42 -245t42 -244.5t122 -155.5t193 -54
q61 0 111 16.5t89 49t65 78t38 104.5h361q-15 -122 -69 -224.5t-141.5 -178t-203.5 -117t-256 -41.5zM623 -414v129h121q43 0 64 14.5t21 43.5q0 28 -21 42.5t-64 14.5h-86l39 216h127v-42l-2 -80q91 1 141 -44.5t50 -118.5q0 -87 -62 -131t-180 -44h-148z" />
    <glyph glyph-name="Egrave" unicode="&#xc8;" horiz-adv-x="1264" 
d="M101 0v1490h1093v-302h-735v-292h678v-293h-678v-301h734v-302h-1092zM543 1620l-263 319h322l176 -319h-235z" />
    <glyph glyph-name="Eacute" unicode="&#xc9;" horiz-adv-x="1264" 
d="M101 0v1490h1093v-302h-735v-292h678v-293h-678v-301h734v-302h-1092zM515 1620l176 319h323l-264 -319h-235z" />
    <glyph glyph-name="Ecircumflex" unicode="&#xca;" horiz-adv-x="1264" 
d="M101 0v1490h1093v-302h-735v-292h678v-293h-678v-301h734v-302h-1092zM516 1626h-265v2l262 311h263l267 -311v-2h-266l-132 164z" />
    <glyph glyph-name="Edieresis" unicode="&#xcb;" horiz-adv-x="1264" 
d="M101 0v1490h1093v-302h-735v-292h678v-293h-678v-301h734v-302h-1092zM875 1605q-76 0 -126.5 48t-50.5 120q0 73 50.5 120.5t126.5 47.5t126 -47.5t50 -120.5q0 -72 -50 -120t-126 -48zM420 1605q-77 0 -127 48t-50 120q0 73 50 120.5t127 47.5q76 0 126 -47.5
t50 -120.5q0 -72 -50 -120t-126 -48z" />
    <glyph glyph-name="Igrave" unicode="&#xcc;" horiz-adv-x="559" 
d="M459 1490v-1490h-358v1490h358zM176 1620l-263 319h322l176 -319h-235z" />
    <glyph glyph-name="Iacute" unicode="&#xcd;" horiz-adv-x="559" 
d="M459 1490v-1490h-358v1490h358zM148 1620l176 319h323l-264 -319h-235z" />
    <glyph glyph-name="Icircumflex" unicode="&#xce;" horiz-adv-x="559" 
d="M459 1490v-1490h-358v1490h358zM149 1626h-265v2l262 311h263l267 -311v-2h-266l-132 164z" />
    <glyph glyph-name="Idieresis" unicode="&#xcf;" horiz-adv-x="559" 
d="M459 1490v-1490h-358v1490h358zM508 1605q-76 0 -126.5 48t-50.5 120q0 73 50.5 120.5t126.5 47.5t126 -47.5t50 -120.5q0 -72 -50 -120t-126 -48zM53 1605q-77 0 -127 48t-50 120q0 73 50 120.5t127 47.5q76 0 126 -47.5t50 -120.5q0 -72 -50 -120t-126 -48z" />
    <glyph glyph-name="Eth" unicode="&#xd0;" horiz-adv-x="1560" 
d="M759 0h-396v300h379q135 0 223.5 48.5t132 147.5t43.5 249t-44 249t-133.5 147.5t-225.5 48.5h-381v300h403q226 0 393 -91t257.5 -258t90.5 -396t-90 -396t-256.5 -258t-395.5 -91zM566 1490v-1490h-358v1490h358zM21 629v232h832v-232h-832z" />
    <glyph glyph-name="Ntilde" unicode="&#xd1;" horiz-adv-x="1514" 
d="M101 0v1490h375l422 -676q27 -44 62.5 -108t74.5 -138.5t74 -149.5l-40 -76q-4 76 -8 173t-6 187t-2 145v643h360v-1490h-376l-387 620q-33 54 -75.5 127.5t-91 164.5t-102.5 194l62 23q7 -108 11 -207t5.5 -177.5t1.5 -124.5v-620h-360zM902 1637q-52 0 -90.5 16.5
t-67.5 39t-54 39t-51 16.5q-33 0 -50.5 -28t-19.5 -76h-180q3 141 66 213.5t160 72.5q52 0 90.5 -16t67.5 -37.5t54 -38t51 -16.5q38 0 54.5 26.5t18.5 76.5h177q-2 -140 -66.5 -214t-159.5 -74z" />
    <glyph glyph-name="Ograve" unicode="&#xd2;" horiz-adv-x="1541" 
d="M771 -23q-202 0 -363.5 91t-255 262.5t-93.5 413.5q0 244 93.5 416t255 262.5t363.5 90.5q201 0 362 -90.5t255.5 -262.5t94.5 -416q0 -243 -94.5 -414.5t-255.5 -262t-362 -90.5zM771 290q107 0 185.5 53t121.5 155t43 246q0 145 -43 247.5t-121.5 155.5t-185.5 53
t-185.5 -53t-121.5 -155.5t-43 -247.5q0 -144 43 -246t121.5 -155t185.5 -53zM667 1620l-263 319h322l176 -319h-235z" />
    <glyph glyph-name="Oacute" unicode="&#xd3;" horiz-adv-x="1541" 
d="M771 -23q-202 0 -363.5 91t-255 262.5t-93.5 413.5q0 244 93.5 416t255 262.5t363.5 90.5q201 0 362 -90.5t255.5 -262.5t94.5 -416q0 -243 -94.5 -414.5t-255.5 -262t-362 -90.5zM771 290q107 0 185.5 53t121.5 155t43 246q0 145 -43 247.5t-121.5 155.5t-185.5 53
t-185.5 -53t-121.5 -155.5t-43 -247.5q0 -144 43 -246t121.5 -155t185.5 -53zM639 1620l176 319h323l-264 -319h-235z" />
    <glyph glyph-name="Ocircumflex" unicode="&#xd4;" horiz-adv-x="1541" 
d="M771 -23q-202 0 -363.5 91t-255 262.5t-93.5 413.5q0 244 93.5 416t255 262.5t363.5 90.5q201 0 362 -90.5t255.5 -262.5t94.5 -416q0 -243 -94.5 -414.5t-255.5 -262t-362 -90.5zM771 290q107 0 185.5 53t121.5 155t43 246q0 145 -43 247.5t-121.5 155.5t-185.5 53
t-185.5 -53t-121.5 -155.5t-43 -247.5q0 -144 43 -246t121.5 -155t185.5 -53zM640 1626h-265v2l262 311h263l267 -311v-2h-266l-132 164z" />
    <glyph glyph-name="Otilde" unicode="&#xd5;" horiz-adv-x="1541" 
d="M771 -23q-202 0 -363.5 91t-255 262.5t-93.5 413.5q0 244 93.5 416t255 262.5t363.5 90.5q201 0 362 -90.5t255.5 -262.5t94.5 -416q0 -243 -94.5 -414.5t-255.5 -262t-362 -90.5zM771 290q107 0 185.5 53t121.5 155t43 246q0 145 -43 247.5t-121.5 155.5t-185.5 53
t-185.5 -53t-121.5 -155.5t-43 -247.5q0 -144 43 -246t121.5 -155t185.5 -53zM914 1637q-52 0 -90.5 16.5t-67.5 39t-54 39t-51 16.5q-33 0 -50.5 -28t-19.5 -76h-180q3 141 66 213.5t160 72.5q52 0 90.5 -16t67.5 -37.5t54 -38t51 -16.5q38 0 54.5 26.5t18.5 76.5h177
q-2 -140 -66.5 -214t-159.5 -74z" />
    <glyph glyph-name="Odieresis" unicode="&#xd6;" horiz-adv-x="1541" 
d="M771 -23q-202 0 -363.5 91t-255 262.5t-93.5 413.5q0 244 93.5 416t255 262.5t363.5 90.5q201 0 362 -90.5t255.5 -262.5t94.5 -416q0 -243 -94.5 -414.5t-255.5 -262t-362 -90.5zM771 290q107 0 185.5 53t121.5 155t43 246q0 145 -43 247.5t-121.5 155.5t-185.5 53
t-185.5 -53t-121.5 -155.5t-43 -247.5q0 -144 43 -246t121.5 -155t185.5 -53zM998 1605q-76 0 -126.5 48t-50.5 120q0 73 50.5 120.5t126.5 47.5t126 -47.5t50 -120.5q0 -72 -50 -120t-126 -48zM543 1605q-77 0 -127 48t-50 120q0 73 50 120.5t127 47.5q76 0 126 -47.5
t50 -120.5q0 -72 -50 -120t-126 -48z" />
    <glyph glyph-name="multiply" unicode="&#xd7;" horiz-adv-x="1373" 
d="M1022 52l-883 879l214 216l881 -883zM353 52l-214 212l883 883l212 -216z" />
    <glyph glyph-name="Oslash" unicode="&#xd8;" horiz-adv-x="1541" 
d="M771 -23q-202 0 -363.5 91t-255 262.5t-93.5 413.5q0 244 93.5 416t255 262.5t363.5 90.5q201 0 362 -90.5t255.5 -262.5t94.5 -416q0 -243 -94.5 -414.5t-255.5 -262t-362 -90.5zM771 290q107 0 185.5 53t121.5 155t43 246q0 145 -43 247.5t-121.5 155.5t-185.5 53
t-185.5 -53t-121.5 -155.5t-43 -247.5q0 -144 43 -246t121.5 -155t185.5 -53zM236 -79l-178 150l1248 1497l178 -149z" />
    <glyph glyph-name="Ugrave" unicode="&#xd9;" horiz-adv-x="1453" 
d="M727 -23q-190 0 -331 68.5t-219 192t-78 287.5v965h351v-935q0 -79 35 -140t97 -96t145 -35t145 35t96.5 95.5t34.5 140.5v935h351v-965q0 -164 -78 -287.5t-219 -192t-330 -68.5zM623 1620l-263 319h322l176 -319h-235z" />
    <glyph glyph-name="Uacute" unicode="&#xda;" horiz-adv-x="1453" 
d="M727 -23q-190 0 -331 68.5t-219 192t-78 287.5v965h351v-935q0 -79 35 -140t97 -96t145 -35t145 35t96.5 95.5t34.5 140.5v935h351v-965q0 -164 -78 -287.5t-219 -192t-330 -68.5zM595 1620l176 319h323l-264 -319h-235z" />
    <glyph glyph-name="Ucircumflex" unicode="&#xdb;" horiz-adv-x="1453" 
d="M727 -23q-190 0 -331 68.5t-219 192t-78 287.5v965h351v-935q0 -79 35 -140t97 -96t145 -35t145 35t96.5 95.5t34.5 140.5v935h351v-965q0 -164 -78 -287.5t-219 -192t-330 -68.5zM595 1626h-265v2l262 311h263l267 -311v-2h-266l-132 164z" />
    <glyph glyph-name="Udieresis" unicode="&#xdc;" horiz-adv-x="1453" 
d="M727 -23q-190 0 -331 68.5t-219 192t-78 287.5v965h351v-935q0 -79 35 -140t97 -96t145 -35t145 35t96.5 95.5t34.5 140.5v935h351v-965q0 -164 -78 -287.5t-219 -192t-330 -68.5zM954 1605q-76 0 -126.5 48t-50.5 120q0 73 50.5 120.5t126.5 47.5t126 -47.5t50 -120.5
q0 -72 -50 -120t-126 -48zM499 1605q-77 0 -127 48t-50 120q0 73 50 120.5t127 47.5q76 0 126 -47.5t50 -120.5q0 -72 -50 -120t-126 -48z" />
    <glyph glyph-name="Yacute" unicode="&#xdd;" horiz-adv-x="1472" 
d="M568 0v535l-554 955h412l235 -439q31 -59 59.5 -117.5t56.5 -122.5h-63q26 64 53 123t57 117l224 439h410l-541 -955v-535h-349zM604 1620l176 319h323l-264 -319h-235z" />
    <glyph glyph-name="Thorn" unicode="&#xde;" horiz-adv-x="1365" 
d="M99 1490h353v-1490h-353v1490zM263 1226h387q186 0 314 -60t194 -164.5t66 -238.5q0 -135 -66 -239t-194 -163t-314 -59h-387v263h387q86 1 138.5 28.5t76.5 72t24 93.5q0 52 -24 97.5t-76.5 74t-138.5 28.5h-387v267z" />
    <glyph glyph-name="germandbls" unicode="&#xdf;" horiz-adv-x="1348" 
d="M101 0v1093q0 130 66 223.5t186 143.5t283 50q151 0 277.5 -45.5t203 -136t76.5 -226.5q0 -112 -55 -193t-155 -107v-17q147 -9 231 -113.5t84 -261.5q0 -134 -62.5 -225.5t-173 -138t-254.5 -46.5h-206v277h141q94 0 148.5 46.5t54.5 124.5q0 80 -61 127t-166 47h-111
v262h73q47 0 82 22.5t54.5 60.5t19.5 84q0 75 -50 123.5t-139 48.5q-91 0 -145.5 -51t-54.5 -137v-1035h-347z" />
    <glyph glyph-name="agrave" unicode="&#xe0;" horiz-adv-x="1171" 
d="M421 -19q-106 0 -188 35t-128.5 105.5t-46.5 176.5q0 91 32 152t89 99t131.5 58t158.5 27q95 8 152 18t82 27.5t25 49.5v6q0 33 -18 57t-51 37.5t-79 13.5q-47 0 -83 -14t-57 -40.5t-26 -62.5l-319 9q11 111 71 190.5t167 122.5t257 43q113 0 202 -24.5t151.5 -72
t95 -116t32.5 -156.5v-722h-334v150h-6q-31 -57 -74.5 -94.5t-101.5 -56t-134 -18.5zM526 208q58 0 104.5 22t73.5 61.5t27 92.5v98q-14 -6 -33.5 -12t-44 -11.5t-52.5 -10.5t-58 -10q-47 -7 -82.5 -22.5t-55.5 -40.5t-20 -61q0 -33 18 -57t49.5 -36.5t73.5 -12.5zM478 1200
l-263 319h322l176 -319h-235z" />
    <glyph glyph-name="aacute" unicode="&#xe1;" horiz-adv-x="1171" 
d="M421 -19q-106 0 -188 35t-128.5 105.5t-46.5 176.5q0 91 32 152t89 99t131.5 58t158.5 27q95 8 152 18t82 27.5t25 49.5v6q0 33 -18 57t-51 37.5t-79 13.5q-47 0 -83 -14t-57 -40.5t-26 -62.5l-319 9q11 111 71 190.5t167 122.5t257 43q113 0 202 -24.5t151.5 -72
t95 -116t32.5 -156.5v-722h-334v150h-6q-31 -57 -74.5 -94.5t-101.5 -56t-134 -18.5zM526 208q58 0 104.5 22t73.5 61.5t27 92.5v98q-14 -6 -33.5 -12t-44 -11.5t-52.5 -10.5t-58 -10q-47 -7 -82.5 -22.5t-55.5 -40.5t-20 -61q0 -33 18 -57t49.5 -36.5t73.5 -12.5zM450 1200
l176 319h323l-264 -319h-235z" />
    <glyph glyph-name="acircumflex" unicode="&#xe2;" horiz-adv-x="1171" 
d="M421 -19q-106 0 -188 35t-128.5 105.5t-46.5 176.5q0 91 32 152t89 99t131.5 58t158.5 27q95 8 152 18t82 27.5t25 49.5v6q0 33 -18 57t-51 37.5t-79 13.5q-47 0 -83 -14t-57 -40.5t-26 -62.5l-319 9q11 111 71 190.5t167 122.5t257 43q113 0 202 -24.5t151.5 -72
t95 -116t32.5 -156.5v-722h-334v150h-6q-31 -57 -74.5 -94.5t-101.5 -56t-134 -18.5zM526 208q58 0 104.5 22t73.5 61.5t27 92.5v98q-14 -6 -33.5 -12t-44 -11.5t-52.5 -10.5t-58 -10q-47 -7 -82.5 -22.5t-55.5 -40.5t-20 -61q0 -33 18 -57t49.5 -36.5t73.5 -12.5zM450 1206
h-265v2l262 311h263l267 -311v-2h-266l-132 164z" />
    <glyph glyph-name="atilde" unicode="&#xe3;" horiz-adv-x="1171" 
d="M421 -19q-106 0 -188 35t-128.5 105.5t-46.5 176.5q0 91 32 152t89 99t131.5 58t158.5 27q95 8 152 18t82 27.5t25 49.5v6q0 33 -18 57t-51 37.5t-79 13.5q-47 0 -83 -14t-57 -40.5t-26 -62.5l-319 9q11 111 71 190.5t167 122.5t257 43q113 0 202 -24.5t151.5 -72
t95 -116t32.5 -156.5v-722h-334v150h-6q-31 -57 -74.5 -94.5t-101.5 -56t-134 -18.5zM526 208q58 0 104.5 22t73.5 61.5t27 92.5v98q-14 -6 -33.5 -12t-44 -11.5t-52.5 -10.5t-58 -10q-47 -7 -82.5 -22.5t-55.5 -40.5t-20 -61q0 -33 18 -57t49.5 -36.5t73.5 -12.5zM725 1217
q-52 0 -90.5 16.5t-67.5 39t-54 39t-51 16.5q-33 0 -50.5 -28t-19.5 -76h-180q3 141 66 213.5t160 72.5q52 0 90.5 -16t67.5 -37.5t54 -38t51 -16.5q38 0 54.5 26.5t18.5 76.5h177q-2 -140 -66.5 -214t-159.5 -74z" />
    <glyph glyph-name="adieresis" unicode="&#xe4;" horiz-adv-x="1171" 
d="M421 -19q-106 0 -188 35t-128.5 105.5t-46.5 176.5q0 91 32 152t89 99t131.5 58t158.5 27q95 8 152 18t82 27.5t25 49.5v6q0 33 -18 57t-51 37.5t-79 13.5q-47 0 -83 -14t-57 -40.5t-26 -62.5l-319 9q11 111 71 190.5t167 122.5t257 43q113 0 202 -24.5t151.5 -72
t95 -116t32.5 -156.5v-722h-334v150h-6q-31 -57 -74.5 -94.5t-101.5 -56t-134 -18.5zM526 208q58 0 104.5 22t73.5 61.5t27 92.5v98q-14 -6 -33.5 -12t-44 -11.5t-52.5 -10.5t-58 -10q-47 -7 -82.5 -22.5t-55.5 -40.5t-20 -61q0 -33 18 -57t49.5 -36.5t73.5 -12.5zM809 1185
q-76 0 -126.5 48t-50.5 120q0 73 50.5 120.5t126.5 47.5t126 -47.5t50 -120.5q0 -72 -50 -120t-126 -48zM354 1185q-77 0 -127 48t-50 120q0 73 50 120.5t127 47.5q76 0 126 -47.5t50 -120.5q0 -72 -50 -120t-126 -48z" />
    <glyph glyph-name="aring" unicode="&#xe5;" horiz-adv-x="1171" 
d="M421 -19q-106 0 -188 35t-128.5 105.5t-46.5 176.5q0 91 32 152t89 99t131.5 58t158.5 27q95 8 152 18t82 27.5t25 49.5v6q0 33 -18 57t-51 37.5t-79 13.5q-47 0 -83 -14t-57 -40.5t-26 -62.5l-319 9q11 111 71 190.5t167 122.5t257 43q113 0 202 -24.5t151.5 -72
t95 -116t32.5 -156.5v-722h-334v150h-6q-31 -57 -74.5 -94.5t-101.5 -56t-134 -18.5zM526 208q58 0 104.5 22t73.5 61.5t27 92.5v98q-14 -6 -33.5 -12t-44 -11.5t-52.5 -10.5t-58 -10q-47 -7 -82.5 -22.5t-55.5 -40.5t-20 -61q0 -33 18 -57t49.5 -36.5t73.5 -12.5zM581 1152
q-74 0 -133.5 31.5t-94 86.5t-34.5 126q0 69 34.5 124t94 87t133.5 32q76 0 135 -32t93.5 -87t34.5 -125t-34.5 -125t-93.5 -86.5t-135 -31.5zM581 1293q45 0 74 29.5t29 72.5q0 44 -29 73.5t-74 29.5q-43 0 -72.5 -29.5t-29.5 -72.5q0 -44 29.5 -73.5t72.5 -29.5z" />
    <glyph glyph-name="ae" unicode="&#xe6;" horiz-adv-x="1830" 
d="M454 -18q-124 0 -212.5 35.5t-136 106.5t-47.5 174q0 96 42 164t119 110.5t182 62.5t232 20h961l-138 -44q1 71 -23.5 121.5t-71 78t-112.5 27.5t-112.5 -27.5t-71.5 -77.5t-25 -120v-150q0 -75 26.5 -128t76.5 -81t119 -28q50 0 89.5 14t67 39.5t39.5 60.5l312 -2
q-19 -107 -91 -188.5t-182 -127t-246 -45.5q-97 0 -180 29t-145 81.5t-96 121.5l1 661q46 69 105.5 118.5t135 76.5t169.5 27q119 0 217.5 -39.5t170 -112t110.5 -173.5t39 -225v-92h-1190q-64 0 -109.5 -17t-69.5 -47t-24 -69q0 -53 39 -80.5t102 -27.5q58 0 104 21.5
t73 61t27 92.5v351q0 33 -18.5 57t-52 37.5t-79.5 13.5q-47 0 -83 -14t-57 -40.5t-26 -62.5l-319 9q10 99 68.5 179.5t163 128.5t249.5 48q130 0 220 -44.5t137 -125.5t48 -191l-6 -471h-60q-29 -82 -79 -135.5t-112.5 -84.5t-131.5 -44t-138 -13z" />
    <glyph glyph-name="ccedilla" unicode="&#xe7;" horiz-adv-x="1177" 
d="M606 -23q-166 0 -289.5 70t-191.5 195.5t-68 291.5t68 291.5t191.5 196t289.5 70.5q110 0 201.5 -31.5t159.5 -88.5t108.5 -135.5t47.5 -174.5l-329 -12q-6 39 -20.5 70.5t-37.5 53.5t-54.5 34t-69.5 12q-65 0 -111 -34.5t-70 -98.5t-24 -153q0 -88 24 -152.5t70.5 -99
t110.5 -34.5q38 0 69.5 12t54.5 34.5t37.5 55t19.5 72.5l330 -11q-5 -97 -44.5 -176t-108 -137t-161 -89.5t-203.5 -31.5zM471 -418v129h121q43 0 64 14.5t21 43.5q0 28 -21 42.5t-64 14.5h-86l39 216h127v-42l-2 -80q91 1 141 -44.5t50 -118.5q0 -87 -62 -131t-180 -44
h-148z" />
    <glyph glyph-name="egrave" unicode="&#xe8;" horiz-adv-x="1184" 
d="M605 -23q-165 0 -288.5 70t-191.5 196t-68 291q0 164 68 289.5t189.5 197t280.5 71.5q119 0 217 -39.5t169.5 -112t111 -173.5t39.5 -225v-92h-961v205h798l-158 -43q0 70 -25 120.5t-71.5 78t-112.5 27.5q-65 0 -111.5 -27.5t-71.5 -77.5t-25 -120v-150
q0 -74 26.5 -127.5t76.5 -81.5t119 -28q50 0 89.5 14t66.5 39.5t40 60.5l310 -11q-21 -104 -93 -183.5t-181 -124t-243 -44.5zM490 1200l-263 319h322l176 -319h-235z" />
    <glyph glyph-name="eacute" unicode="&#xe9;" horiz-adv-x="1184" 
d="M605 -23q-165 0 -288.5 70t-191.5 196t-68 291q0 164 68 289.5t189.5 197t280.5 71.5q119 0 217 -39.5t169.5 -112t111 -173.5t39.5 -225v-92h-961v205h798l-158 -43q0 70 -25 120.5t-71.5 78t-112.5 27.5q-65 0 -111.5 -27.5t-71.5 -77.5t-25 -120v-150
q0 -74 26.5 -127.5t76.5 -81.5t119 -28q50 0 89.5 14t66.5 39.5t40 60.5l310 -11q-21 -104 -93 -183.5t-181 -124t-243 -44.5zM462 1200l176 319h323l-264 -319h-235z" />
    <glyph glyph-name="ecircumflex" unicode="&#xea;" horiz-adv-x="1184" 
d="M605 -23q-165 0 -288.5 70t-191.5 196t-68 291q0 164 68 289.5t189.5 197t280.5 71.5q119 0 217 -39.5t169.5 -112t111 -173.5t39.5 -225v-92h-961v205h798l-158 -43q0 70 -25 120.5t-71.5 78t-112.5 27.5q-65 0 -111.5 -27.5t-71.5 -77.5t-25 -120v-150
q0 -74 26.5 -127.5t76.5 -81.5t119 -28q50 0 89.5 14t66.5 39.5t40 60.5l310 -11q-21 -104 -93 -183.5t-181 -124t-243 -44.5zM463 1206h-265v2l262 311h263l267 -311v-2h-266l-132 164z" />
    <glyph glyph-name="edieresis" unicode="&#xeb;" horiz-adv-x="1184" 
d="M605 -23q-165 0 -288.5 70t-191.5 196t-68 291q0 164 68 289.5t189.5 197t280.5 71.5q119 0 217 -39.5t169.5 -112t111 -173.5t39.5 -225v-92h-961v205h798l-158 -43q0 70 -25 120.5t-71.5 78t-112.5 27.5q-65 0 -111.5 -27.5t-71.5 -77.5t-25 -120v-150
q0 -74 26.5 -127.5t76.5 -81.5t119 -28q50 0 89.5 14t66.5 39.5t40 60.5l310 -11q-21 -104 -93 -183.5t-181 -124t-243 -44.5zM822 1185q-76 0 -126.5 48t-50.5 120q0 73 50.5 120.5t126.5 47.5t126 -47.5t50 -120.5q0 -72 -50 -120t-126 -48zM367 1185q-77 0 -127 48
t-50 120q0 73 50 120.5t127 47.5q76 0 126 -47.5t50 -120.5q0 -72 -50 -120t-126 -48z" />
    <glyph glyph-name="igrave" unicode="&#xec;" horiz-adv-x="546" 
d="M100 0v1070h346v-1070h-346zM169 1200l-263 319h322l176 -319h-235z" />
    <glyph glyph-name="iacute" unicode="&#xed;" horiz-adv-x="546" 
d="M100 0v1070h346v-1070h-346zM141 1200l176 319h323l-264 -319h-235z" />
    <glyph glyph-name="icircumflex" unicode="&#xee;" horiz-adv-x="546" 
d="M100 0v1070h346v-1070h-346zM142 1206h-265v2l262 311h263l267 -311v-2h-266l-132 164z" />
    <glyph glyph-name="idieresis" unicode="&#xef;" horiz-adv-x="546" 
d="M100 0v1070h346v-1070h-346zM500 1185q-76 0 -126.5 48t-50.5 120q0 73 50.5 120.5t126.5 47.5t126 -47.5t50 -120.5q0 -72 -50 -120t-126 -48zM45 1185q-77 0 -127 48t-50 120q0 73 50 120.5t127 47.5q76 0 126 -47.5t50 -120.5q0 -72 -50 -120t-126 -48z" />
    <glyph glyph-name="eth" unicode="&#xf0;" horiz-adv-x="1209" 
d="M932 1399l-704 -364l-12 151l704 362zM598 -24q-162 1 -284 68t-189.5 187.5t-67.5 280.5q0 145 56.5 263t158.5 187t240 69q63 0 115.5 -15.5t94 -42.5t71.5 -60h16q-51 107 -145.5 199.5t-210.5 164t-234 114.5l18 177q178 -34 342 -117t293.5 -210t204.5 -293.5
t75 -367.5q0 -182 -66.5 -318t-190.5 -210.5t-297 -75.5zM608 237q70 0 120 36t77 102.5t27 156.5q0 84 -24.5 150t-74 103.5t-125.5 37.5q-74 0 -123.5 -36t-74 -101t-24.5 -151q0 -88 25.5 -156t75.5 -105t121 -37z" />
    <glyph glyph-name="ntilde" unicode="&#xf1;" horiz-adv-x="1247" 
d="M446 588v-588h-346v1070h337l2 -283h-43q48 138 139.5 221t242.5 83q116 0 198 -50t126.5 -143.5t44.5 -223.5v-674h-346v604q0 94 -45.5 144t-128.5 50q-55 0 -96 -23t-63 -69.5t-22 -117.5zM766 1217q-52 0 -90.5 16.5t-67.5 39t-54 39t-51 16.5q-33 0 -50.5 -28
t-19.5 -76h-180q3 141 66 213.5t160 72.5q52 0 90.5 -16t67.5 -37.5t54 -38t51 -16.5q38 0 54.5 26.5t18.5 76.5h177q-2 -140 -66.5 -214t-159.5 -74z" />
    <glyph glyph-name="ograve" unicode="&#xf2;" horiz-adv-x="1227" 
d="M614 -23q-168 0 -293.5 69t-194.5 194t-69 294q0 168 69 293t194.5 195t293.5 70t293 -70t194 -195t69 -293q0 -169 -69 -294t-194 -194t-293 -69zM614 249q61 0 107.5 34t72.5 98t26 153q0 91 -26 154t-72.5 97t-107.5 34q-62 0 -109 -33.5t-72.5 -97t-25.5 -154.5
q0 -90 25.5 -153.5t72.5 -97.5t109 -34zM509 1200l-263 319h322l176 -319h-235z" />
    <glyph glyph-name="oacute" unicode="&#xf3;" horiz-adv-x="1227" 
d="M614 -23q-168 0 -293.5 69t-194.5 194t-69 294q0 168 69 293t194.5 195t293.5 70t293 -70t194 -195t69 -293q0 -169 -69 -294t-194 -194t-293 -69zM614 249q61 0 107.5 34t72.5 98t26 153q0 91 -26 154t-72.5 97t-107.5 34q-62 0 -109 -33.5t-72.5 -97t-25.5 -154.5
q0 -90 25.5 -153.5t72.5 -97.5t109 -34zM481 1200l176 319h323l-264 -319h-235z" />
    <glyph glyph-name="ocircumflex" unicode="&#xf4;" horiz-adv-x="1227" 
d="M614 -23q-168 0 -293.5 69t-194.5 194t-69 294q0 168 69 293t194.5 195t293.5 70t293 -70t194 -195t69 -293q0 -169 -69 -294t-194 -194t-293 -69zM614 249q61 0 107.5 34t72.5 98t26 153q0 91 -26 154t-72.5 97t-107.5 34q-62 0 -109 -33.5t-72.5 -97t-25.5 -154.5
q0 -90 25.5 -153.5t72.5 -97.5t109 -34zM482 1206h-265v2l262 311h263l267 -311v-2h-266l-132 164z" />
    <glyph glyph-name="otilde" unicode="&#xf5;" horiz-adv-x="1227" 
d="M614 -23q-168 0 -293.5 69t-194.5 194t-69 294q0 168 69 293t194.5 195t293.5 70t293 -70t194 -195t69 -293q0 -169 -69 -294t-194 -194t-293 -69zM614 249q61 0 107.5 34t72.5 98t26 153q0 91 -26 154t-72.5 97t-107.5 34q-62 0 -109 -33.5t-72.5 -97t-25.5 -154.5
q0 -90 25.5 -153.5t72.5 -97.5t109 -34zM757 1217q-52 0 -90.5 16.5t-67.5 39t-54 39t-51 16.5q-33 0 -50.5 -28t-19.5 -76h-180q3 141 66 213.5t160 72.5q52 0 90.5 -16t67.5 -37.5t54 -38t51 -16.5q38 0 54.5 26.5t18.5 76.5h177q-2 -140 -66.5 -214t-159.5 -74z" />
    <glyph glyph-name="odieresis" unicode="&#xf6;" horiz-adv-x="1227" 
d="M614 -23q-168 0 -293.5 69t-194.5 194t-69 294q0 168 69 293t194.5 195t293.5 70t293 -70t194 -195t69 -293q0 -169 -69 -294t-194 -194t-293 -69zM614 249q61 0 107.5 34t72.5 98t26 153q0 91 -26 154t-72.5 97t-107.5 34q-62 0 -109 -33.5t-72.5 -97t-25.5 -154.5
q0 -90 25.5 -153.5t72.5 -97.5t109 -34zM841 1185q-76 0 -126.5 48t-50.5 120q0 73 50.5 120.5t126.5 47.5t126 -47.5t50 -120.5q0 -72 -50 -120t-126 -48zM386 1185q-77 0 -127 48t-50 120q0 73 50 120.5t127 47.5q76 0 126 -47.5t50 -120.5q0 -72 -50 -120t-126 -48z" />
    <glyph glyph-name="divide" unicode="&#xf7;" horiz-adv-x="1373" 
d="M1207 734v-269h-1041v269h1041zM686 0q-78 1 -133 55.5t-55 133.5q0 76 55 130.5t133 54.5q77 0 131.5 -54.5t54.5 -130.5q0 -79 -54.5 -133.5t-131.5 -55.5zM686 825q-78 -1 -133 54.5t-55 133.5t55.5 132t132.5 54q78 0 132 -54t54 -132t-54 -133.5t-132 -54.5z" />
    <glyph glyph-name="oslash" unicode="&#xf8;" horiz-adv-x="1227" 
d="M614 -23q-168 0 -293.5 69t-194.5 194t-69 294q0 168 69 293t194.5 195t293.5 70t293 -70t194 -195t69 -293q0 -169 -69 -294t-194 -194t-293 -69zM614 249q61 0 107.5 34t72.5 98t26 153q0 91 -26 154t-72.5 97t-107.5 34q-62 0 -109 -33.5t-72.5 -97t-25.5 -154.5
q0 -90 25.5 -153.5t72.5 -97.5t109 -34zM168 -50l-107 100l998 1069l106 -99z" />
    <glyph glyph-name="ugrave" unicode="&#xf9;" horiz-adv-x="1247" 
d="M469 -21q-115 0 -198 50t-127 143.5t-44 223.5v674h346v-604q0 -93 45.5 -143.5t128.5 -50.5q55 0 95.5 23t63 69.5t22.5 117.5v588h346v-1070h-338l-1 283h43q-48 -138 -139.5 -221t-242.5 -83zM520 1200l-263 319h322l176 -319h-235z" />
    <glyph glyph-name="uacute" unicode="&#xfa;" horiz-adv-x="1247" 
d="M469 -21q-115 0 -198 50t-127 143.5t-44 223.5v674h346v-604q0 -93 45.5 -143.5t128.5 -50.5q55 0 95.5 23t63 69.5t22.5 117.5v588h346v-1070h-338l-1 283h43q-48 -138 -139.5 -221t-242.5 -83zM491 1200l176 319h323l-264 -319h-235z" />
    <glyph glyph-name="ucircumflex" unicode="&#xfb;" horiz-adv-x="1247" 
d="M469 -21q-115 0 -198 50t-127 143.5t-44 223.5v674h346v-604q0 -93 45.5 -143.5t128.5 -50.5q55 0 95.5 23t63 69.5t22.5 117.5v588h346v-1070h-338l-1 283h43q-48 -138 -139.5 -221t-242.5 -83zM492 1206h-265v2l262 311h263l267 -311v-2h-266l-132 164z" />
    <glyph glyph-name="udieresis" unicode="&#xfc;" horiz-adv-x="1247" 
d="M469 -21q-115 0 -198 50t-127 143.5t-44 223.5v674h346v-604q0 -93 45.5 -143.5t128.5 -50.5q55 0 95.5 23t63 69.5t22.5 117.5v588h346v-1070h-338l-1 283h43q-48 -138 -139.5 -221t-242.5 -83zM851 1185q-76 0 -126.5 48t-50.5 120q0 73 50.5 120.5t126.5 47.5
t126 -47.5t50 -120.5q0 -72 -50 -120t-126 -48zM396 1185q-77 0 -127 48t-50 120q0 73 50 120.5t127 47.5q76 0 126 -47.5t50 -120.5q0 -72 -50 -120t-126 -48z" />
    <glyph glyph-name="yacute" unicode="&#xfd;" horiz-adv-x="1191" 
d="M125 -412l17 264l124 -3q42 -3 69 6.5t43 33.5t25 64l14 48l-409 1069h362l159 -500q31 -102 57.5 -205.5t53.5 -210.5h-92q26 107 53.5 211t60.5 205l163 500h358l-459 -1212q-35 -94 -84.5 -156t-119 -92t-166.5 -30q-58 0 -117.5 2t-111.5 6zM445 1200l176 319h323
l-264 -319h-235z" />
    <glyph glyph-name="thorn" unicode="&#xfe;" horiz-adv-x="1264" 
d="M753 -22q-73 0 -131.5 22.5t-101 63.5t-69.5 98h-4v-580h-347v1908h347v-570h5q29 53 72 91t101 59t131 21q130 0 232 -68t160.5 -192.5t58.5 -294.5q0 -172 -57 -297t-159 -193t-238 -68zM651 253q65 0 111 34.5t70.5 98t24.5 150.5t-24.5 150t-70.5 97t-111 34
t-114 -34.5t-76 -97.5t-27 -149t27 -149.5t76 -98.5t114 -35z" />
    <glyph glyph-name="ydieresis" unicode="&#xff;" horiz-adv-x="1191" 
d="M125 -412l17 264l124 -3q42 -3 69 6.5t43 33.5t25 64l14 48l-409 1069h362l159 -500q31 -102 57.5 -205.5t53.5 -210.5h-92q26 107 53.5 211t60.5 205l163 500h358l-459 -1212q-35 -94 -84.5 -156t-119 -92t-166.5 -30q-58 0 -117.5 2t-111.5 6zM805 1185
q-76 0 -126.5 48t-50.5 120q0 73 50.5 120.5t126.5 47.5t126 -47.5t50 -120.5q0 -72 -50 -120t-126 -48zM350 1185q-77 0 -127 48t-50 120q0 73 50 120.5t127 47.5q76 0 126 -47.5t50 -120.5q0 -72 -50 -120t-126 -48z" />
    <glyph glyph-name="Amacron" unicode="&#x100;" horiz-adv-x="1525" 
d="M14 0l509 1490h474l514 -1490h-401l-203 654q-49 164 -96.5 334.5t-97.5 366.5h94q-51 -196 -98 -366.5t-97 -334.5l-207 -654h-391zM363 293v279h800v-279h-800zM1057 1871v-210h-588v210h588z" />
    <glyph glyph-name="amacron" unicode="&#x101;" horiz-adv-x="1171" 
d="M421 -19q-106 0 -188 35t-128.5 105.5t-46.5 176.5q0 91 32 152t89 99t131.5 58t158.5 27q95 8 152 18t82 27.5t25 49.5v6q0 33 -18 57t-51 37.5t-79 13.5q-47 0 -83 -14t-57 -40.5t-26 -62.5l-319 9q11 111 71 190.5t167 122.5t257 43q113 0 202 -24.5t151.5 -72
t95 -116t32.5 -156.5v-722h-334v150h-6q-31 -57 -74.5 -94.5t-101.5 -56t-134 -18.5zM526 208q58 0 104.5 22t73.5 61.5t27 92.5v98q-14 -6 -33.5 -12t-44 -11.5t-52.5 -10.5t-58 -10q-47 -7 -82.5 -22.5t-55.5 -40.5t-20 -61q0 -33 18 -57t49.5 -36.5t73.5 -12.5zM876 1451
v-210h-588v210h588z" />
    <glyph glyph-name="Abreve" unicode="&#x102;" horiz-adv-x="1525" 
d="M14 0l509 1490h474l514 -1490h-401l-203 654q-49 164 -96.5 334.5t-97.5 366.5h94q-51 -196 -98 -366.5t-97 -334.5l-207 -654h-391zM363 293v279h800v-279h-800zM763 1612q-104 0 -187 43t-131 116t-48 162h196q0 -63 48 -104t122 -41q73 0 120.5 41t47.5 104h199
q0 -89 -48.5 -162t-131 -116t-187.5 -43z" />
    <glyph glyph-name="abreve" unicode="&#x103;" horiz-adv-x="1171" 
d="M421 -19q-106 0 -188 35t-128.5 105.5t-46.5 176.5q0 91 32 152t89 99t131.5 58t158.5 27q95 8 152 18t82 27.5t25 49.5v6q0 33 -18 57t-51 37.5t-79 13.5q-47 0 -83 -14t-57 -40.5t-26 -62.5l-319 9q11 111 71 190.5t167 122.5t257 43q113 0 202 -24.5t151.5 -72
t95 -116t32.5 -156.5v-722h-334v150h-6q-31 -57 -74.5 -94.5t-101.5 -56t-134 -18.5zM526 208q58 0 104.5 22t73.5 61.5t27 92.5v98q-14 -6 -33.5 -12t-44 -11.5t-52.5 -10.5t-58 -10q-47 -7 -82.5 -22.5t-55.5 -40.5t-20 -61q0 -33 18 -57t49.5 -36.5t73.5 -12.5zM581 1192
q-104 0 -187 43t-131 116t-48 162h196q0 -63 48 -104t122 -41q73 0 120.5 41t47.5 104h199q0 -89 -48.5 -162t-131 -116t-187.5 -43z" />
    <glyph glyph-name="Aogonek" unicode="&#x104;" horiz-adv-x="1525" 
d="M14 0l509 1490h474l514 -1490h-401l-203 654q-49 164 -96.5 334.5t-97.5 366.5h94q-51 -196 -98 -366.5t-97 -334.5l-207 -654h-391zM363 293v279h800v-279h-800zM1328 -420q-140 0 -223 54t-83 158q0 70 35 124.5t89 103.5l365 -20q-80 -45 -111.5 -79t-31.5 -73
q0 -32 19.5 -48t57.5 -16q15 0 30.5 1.5t30.5 3.5l14 -198q-36 -5 -93 -8t-99 -3z" />
    <glyph glyph-name="aogonek" unicode="&#x105;" horiz-adv-x="1171" 
d="M421 -19q-106 0 -188 35t-128.5 105.5t-46.5 176.5q0 91 32 152t89 99t131.5 58t158.5 27q95 8 152 18t82 27.5t25 49.5v6q0 33 -18 57t-51 37.5t-79 13.5q-47 0 -83 -14t-57 -40.5t-26 -62.5l-319 9q11 111 71 190.5t167 122.5t257 43q113 0 202 -24.5t151.5 -72
t95 -116t32.5 -156.5v-722h-334v150h-6q-31 -57 -74.5 -94.5t-101.5 -56t-134 -18.5zM526 208q58 0 104.5 22t73.5 61.5t27 92.5v98q-14 -6 -33.5 -12t-44 -11.5t-52.5 -10.5t-58 -10q-47 -7 -82.5 -22.5t-55.5 -40.5t-20 -61q0 -33 18 -57t49.5 -36.5t73.5 -12.5zM901 -420
q-140 0 -218.5 55t-78.5 157q0 67 35 120t98 104l335 -16q-80 -45 -111.5 -79t-31.5 -72q0 -32 19.5 -48t57.5 -16q15 0 30.5 1.5t30.5 3.5l14 -198q-36 -5 -87 -8.5t-93 -3.5z" />
    <glyph glyph-name="Cacute" unicode="&#x106;" horiz-adv-x="1498" 
d="M772 -23q-203 0 -364.5 90.5t-255 262.5t-93.5 414q0 244 93.5 416t255 262.5t364.5 90.5q136 0 251 -39.5t203 -113t144 -177t72 -232.5h-362q-10 59 -36 105t-65 78t-89.5 49t-110.5 17q-114 0 -194 -54.5t-122 -156.5t-42 -245t42 -244.5t122 -155.5t193 -54
q61 0 111 16.5t89 49t65 78t38 104.5h361q-15 -122 -69 -224.5t-141.5 -178t-203.5 -117t-256 -41.5zM632 1620l176 319h323l-264 -319h-235z" />
    <glyph glyph-name="cacute" unicode="&#x107;" horiz-adv-x="1177" 
d="M606 -23q-166 0 -289.5 70t-191.5 195.5t-68 291.5t68 291.5t191.5 196t289.5 70.5q110 0 201.5 -31.5t159.5 -88.5t108.5 -135.5t47.5 -174.5l-329 -12q-6 39 -20.5 70.5t-37.5 53.5t-54.5 34t-69.5 12q-65 0 -111 -34.5t-70 -98.5t-24 -153q0 -88 24 -152.5t70.5 -99
t110.5 -34.5q38 0 69.5 12t54.5 34.5t37.5 55t19.5 72.5l330 -11q-5 -97 -44.5 -176t-108 -137t-161 -89.5t-203.5 -31.5zM474 1200l176 319h323l-264 -319h-235z" />
    <glyph glyph-name="Ccircumflex" unicode="&#x108;" horiz-adv-x="1498" 
d="M772 -23q-203 0 -364.5 90.5t-255 262.5t-93.5 414q0 244 93.5 416t255 262.5t364.5 90.5q136 0 251 -39.5t203 -113t144 -177t72 -232.5h-362q-10 59 -36 105t-65 78t-89.5 49t-110.5 17q-114 0 -194 -54.5t-122 -156.5t-42 -245t42 -244.5t122 -155.5t193 -54
q61 0 111 16.5t89 49t65 78t38 104.5h361q-15 -122 -69 -224.5t-141.5 -178t-203.5 -117t-256 -41.5zM633 1626h-265v2l262 311h263l267 -311v-2h-266l-132 164z" />
    <glyph glyph-name="ccircumflex" unicode="&#x109;" horiz-adv-x="1177" 
d="M606 -23q-166 0 -289.5 70t-191.5 195.5t-68 291.5t68 291.5t191.5 196t289.5 70.5q110 0 201.5 -31.5t159.5 -88.5t108.5 -135.5t47.5 -174.5l-329 -12q-6 39 -20.5 70.5t-37.5 53.5t-54.5 34t-69.5 12q-65 0 -111 -34.5t-70 -98.5t-24 -153q0 -88 24 -152.5t70.5 -99
t110.5 -34.5q38 0 69.5 12t54.5 34.5t37.5 55t19.5 72.5l330 -11q-5 -97 -44.5 -176t-108 -137t-161 -89.5t-203.5 -31.5zM475 1206h-265v2l262 311h263l267 -311v-2h-266l-132 164z" />
    <glyph glyph-name="Cdotaccent" unicode="&#x10a;" horiz-adv-x="1498" 
d="M772 -23q-203 0 -364.5 90.5t-255 262.5t-93.5 414q0 244 93.5 416t255 262.5t364.5 90.5q136 0 251 -39.5t203 -113t144 -177t72 -232.5h-362q-10 59 -36 105t-65 78t-89.5 49t-110.5 17q-114 0 -194 -54.5t-122 -156.5t-42 -245t42 -244.5t122 -155.5t193 -54
q61 0 111 16.5t89 49t65 78t38 104.5h361q-15 -122 -69 -224.5t-141.5 -178t-203.5 -117t-256 -41.5zM764 1599q-81 0 -134.5 49t-53.5 124q0 74 53.5 123t133.5 49q82 0 135 -49t53 -124q0 -74 -53 -123t-134 -49z" />
    <glyph glyph-name="cdotaccent" unicode="&#x10b;" horiz-adv-x="1177" 
d="M606 -23q-166 0 -289.5 70t-191.5 195.5t-68 291.5t68 291.5t191.5 196t289.5 70.5q110 0 201.5 -31.5t159.5 -88.5t108.5 -135.5t47.5 -174.5l-329 -12q-6 39 -20.5 70.5t-37.5 53.5t-54.5 34t-69.5 12q-65 0 -111 -34.5t-70 -98.5t-24 -153q0 -88 24 -152.5t70.5 -99
t110.5 -34.5q38 0 69.5 12t54.5 34.5t37.5 55t19.5 72.5l330 -11q-5 -97 -44.5 -176t-108 -137t-161 -89.5t-203.5 -31.5zM606 1179q-81 0 -134.5 49t-53.5 124q0 74 53.5 123t133.5 49q82 0 135 -49t53 -124q0 -74 -53 -123t-134 -49z" />
    <glyph glyph-name="Ccaron" unicode="&#x10c;" horiz-adv-x="1498" 
d="M772 -23q-203 0 -364.5 90.5t-255 262.5t-93.5 414q0 244 93.5 416t255 262.5t364.5 90.5q136 0 251 -39.5t203 -113t144 -177t72 -232.5h-362q-10 59 -36 105t-65 78t-89.5 49t-110.5 17q-114 0 -194 -54.5t-122 -156.5t-42 -245t42 -244.5t122 -155.5t193 -54
q61 0 111 16.5t89 49t65 78t38 104.5h361q-15 -122 -69 -224.5t-141.5 -178t-203.5 -117t-256 -41.5zM633 1939l129 -165l132 165h266v-2l-267 -311h-263l-262 311v2h265z" />
    <glyph glyph-name="ccaron" unicode="&#x10d;" horiz-adv-x="1177" 
d="M606 -23q-166 0 -289.5 70t-191.5 195.5t-68 291.5t68 291.5t191.5 196t289.5 70.5q110 0 201.5 -31.5t159.5 -88.5t108.5 -135.5t47.5 -174.5l-329 -12q-6 39 -20.5 70.5t-37.5 53.5t-54.5 34t-69.5 12q-65 0 -111 -34.5t-70 -98.5t-24 -153q0 -88 24 -152.5t70.5 -99
t110.5 -34.5q38 0 69.5 12t54.5 34.5t37.5 55t19.5 72.5l330 -11q-5 -97 -44.5 -176t-108 -137t-161 -89.5t-203.5 -31.5zM475 1519l129 -165l132 165h266v-2l-267 -311h-263l-262 311v2h265z" />
    <glyph glyph-name="Dcaron" unicode="&#x10e;" horiz-adv-x="1453" 
d="M652 0h-396v300h379q135 0 223.5 48.5t132 147.5t43.5 249t-44 249t-133.5 147.5t-225.5 48.5h-381v300h403q226 0 393 -91t257.5 -258t90.5 -396t-90 -396t-256.5 -258t-395.5 -91zM459 1490v-1490h-358v1490h358zM458 1939l129 -165l132 165h266v-2l-267 -311h-263
l-262 311v2h265z" />
    <glyph glyph-name="dcaron" unicode="&#x10f;" horiz-adv-x="1539" 
d="M511 -22q-134 0 -237 68t-160 193t-57 297q0 170 58.5 294.5t161 192.5t231.5 68q74 0 131.5 -21t101 -59.5t74.5 -94.5h2v574h346v-1490h-342v167h-3q-26 -59 -70 -101.5t-103.5 -65t-133.5 -22.5zM613 253q65 0 114 35t76 98.5t27 149.5t-27 149t-76 97.5t-114 34.5
q-64 0 -110.5 -34t-71 -97t-24.5 -150t25 -150.5t71 -98t110 -34.5zM1287 1182v386h249l-53 -386h-196z" />
    <glyph glyph-name="Dcroat" unicode="&#x110;" horiz-adv-x="1560" 
d="M759 0h-396v300h379q135 0 223.5 48.5t132 147.5t43.5 249t-44 249t-133.5 147.5t-225.5 48.5h-381v300h403q226 0 393 -91t257.5 -258t90.5 -396t-90 -396t-256.5 -258t-395.5 -91zM566 1490v-1490h-358v1490h358zM21 629v232h832v-232h-832z" />
    <glyph glyph-name="dcroat" unicode="&#x111;" horiz-adv-x="1263" 
d="M511 -22q-134 0 -237 68t-160 193t-57 297q0 170 58.5 294.5t161 192.5t231.5 68q74 0 131.5 -21t101 -59.5t74.5 -94.5h2v574h346v-1490h-342v167h-3q-26 -59 -70 -101.5t-103.5 -65t-133.5 -22.5zM613 253q65 0 114 35t76 98.5t27 149.5t-27 149t-76 97.5t-114 34.5
q-64 0 -110.5 -34t-71 -97t-24.5 -150t25 -150.5t71 -98t110 -34.5zM501 1172v198h795v-198h-795z" />
    <glyph glyph-name="Emacron" unicode="&#x112;" horiz-adv-x="1264" 
d="M101 0v1490h1093v-302h-735v-292h678v-293h-678v-301h734v-302h-1092zM941 1871v-210h-588v210h588z" />
    <glyph glyph-name="emacron" unicode="&#x113;" horiz-adv-x="1184" 
d="M605 -23q-165 0 -288.5 70t-191.5 196t-68 291q0 164 68 289.5t189.5 197t280.5 71.5q119 0 217 -39.5t169.5 -112t111 -173.5t39.5 -225v-92h-961v205h798l-158 -43q0 70 -25 120.5t-71.5 78t-112.5 27.5q-65 0 -111.5 -27.5t-71.5 -77.5t-25 -120v-150
q0 -74 26.5 -127.5t76.5 -81.5t119 -28q50 0 89.5 14t66.5 39.5t40 60.5l310 -11q-21 -104 -93 -183.5t-181 -124t-243 -44.5zM888 1451v-210h-588v210h588z" />
    <glyph glyph-name="Ebreve" unicode="&#x114;" horiz-adv-x="1264" 
d="M101 0v1490h1093v-302h-735v-292h678v-293h-678v-301h734v-302h-1092zM647 1612q-104 0 -187 43t-131 116t-48 162h196q0 -63 48 -104t122 -41q73 0 120.5 41t47.5 104h199q0 -89 -48.5 -162t-131 -116t-187.5 -43z" />
    <glyph glyph-name="ebreve" unicode="&#x115;" horiz-adv-x="1184" 
d="M605 -23q-165 0 -288.5 70t-191.5 196t-68 291q0 164 68 289.5t189.5 197t280.5 71.5q119 0 217 -39.5t169.5 -112t111 -173.5t39.5 -225v-92h-961v205h798l-158 -43q0 70 -25 120.5t-71.5 78t-112.5 27.5q-65 0 -111.5 -27.5t-71.5 -77.5t-25 -120v-150
q0 -74 26.5 -127.5t76.5 -81.5t119 -28q50 0 89.5 14t66.5 39.5t40 60.5l310 -11q-21 -104 -93 -183.5t-181 -124t-243 -44.5zM594 1192q-104 0 -187 43t-131 116t-48 162h196q0 -63 48 -104t122 -41q73 0 120.5 41t47.5 104h199q0 -89 -48.5 -162t-131 -116t-187.5 -43z
" />
    <glyph glyph-name="Edotaccent" unicode="&#x116;" horiz-adv-x="1264" 
d="M101 0v1490h1093v-302h-735v-292h678v-293h-678v-301h734v-302h-1092zM647 1599q-81 0 -134.5 49t-53.5 124q0 74 53.5 123t133.5 49q82 0 135 -49t53 -124q0 -74 -53 -123t-134 -49z" />
    <glyph glyph-name="edotaccent" unicode="&#x117;" horiz-adv-x="1184" 
d="M605 -23q-165 0 -288.5 70t-191.5 196t-68 291q0 164 68 289.5t189.5 197t280.5 71.5q119 0 217 -39.5t169.5 -112t111 -173.5t39.5 -225v-92h-961v205h798l-158 -43q0 70 -25 120.5t-71.5 78t-112.5 27.5q-65 0 -111.5 -27.5t-71.5 -77.5t-25 -120v-150
q0 -74 26.5 -127.5t76.5 -81.5t119 -28q50 0 89.5 14t66.5 39.5t40 60.5l310 -11q-21 -104 -93 -183.5t-181 -124t-243 -44.5zM594 1179q-81 0 -134.5 49t-53.5 124q0 74 53.5 123t133.5 49q82 0 135 -49t53 -124q0 -74 -53 -123t-134 -49z" />
    <glyph glyph-name="Eogonek" unicode="&#x118;" horiz-adv-x="1264" 
d="M101 0v1490h1093v-302h-735v-292h678v-293h-678v-301h734v-302h-1092zM1023 -420q-140 0 -218.5 55t-78.5 156q0 70 37 129t105 112l326 -32q-80 -45 -111.5 -79t-31.5 -73q0 -32 19.5 -48t57.5 -16q15 0 30.5 1.5t30.5 3.5l14 -198q-36 -5 -87 -8t-93 -3z" />
    <glyph glyph-name="eogonek" unicode="&#x119;" horiz-adv-x="1184" 
d="M605 -23q-165 0 -288.5 70t-191.5 196t-68 291q0 164 68 289.5t189.5 197t280.5 71.5q119 0 217 -39.5t169.5 -112t111 -173.5t39.5 -225v-92h-961v205h798l-158 -43q0 70 -25 120.5t-71.5 78t-112.5 27.5q-65 0 -111.5 -27.5t-71.5 -77.5t-25 -120v-150
q0 -74 26.5 -127.5t76.5 -81.5t119 -28q50 0 89.5 14t66.5 39.5t40 60.5l310 -11q-21 -104 -93 -183.5t-181 -124t-243 -44.5zM898 -420q-144 0 -222 54.5t-78 155.5q0 34 8.5 64t24.5 57.5t37.5 55.5t46.5 57l407 305q-14 -78 -47.5 -148t-69.5 -130.5t-62 -111t-26 -91.5
q0 -32 19.5 -48t61.5 -16q15 0 30 1.5t30 3.5l15 -198q-36 -5 -85 -8t-90 -3z" />
    <glyph glyph-name="Ecaron" unicode="&#x11a;" horiz-adv-x="1264" 
d="M101 0v1490h1093v-302h-735v-292h678v-293h-678v-301h734v-302h-1092zM516 1939l129 -165l132 165h266v-2l-267 -311h-263l-262 311v2h265z" />
    <glyph glyph-name="ecaron" unicode="&#x11b;" horiz-adv-x="1184" 
d="M605 -23q-165 0 -288.5 70t-191.5 196t-68 291q0 164 68 289.5t189.5 197t280.5 71.5q119 0 217 -39.5t169.5 -112t111 -173.5t39.5 -225v-92h-961v205h798l-158 -43q0 70 -25 120.5t-71.5 78t-112.5 27.5q-65 0 -111.5 -27.5t-71.5 -77.5t-25 -120v-150
q0 -74 26.5 -127.5t76.5 -81.5t119 -28q50 0 89.5 14t66.5 39.5t40 60.5l310 -11q-21 -104 -93 -183.5t-181 -124t-243 -44.5zM463 1519l129 -165l132 165h266v-2l-267 -311h-263l-262 311v2h265z" />
    <glyph glyph-name="Gcircumflex" unicode="&#x11c;" horiz-adv-x="1518" 
d="M777 -23q-215 0 -376.5 94.5t-251.5 267t-90 405.5q0 243 94 415.5t256 263t363 90.5q131 0 246 -37.5t204 -107.5t145 -166t68 -214h-363q-11 49 -35 88.5t-61 67t-85 42t-108 14.5q-114 0 -195 -54t-124 -155.5t-43 -245.5t43 -245.5t125 -155.5t198 -54q97 0 166.5 33
t107 93t37.5 140l77 -8h-375v263h647v-200q0 -192 -85 -334.5t-236 -221t-349 -78.5zM632 1626h-265v2l262 311h263l267 -311v-2h-266l-132 164z" />
    <glyph glyph-name="gcircumflex" unicode="&#x11d;" horiz-adv-x="1264" 
d="M620 -434q-159 0 -267.5 43.5t-169 119.5t-77.5 175l323 13q9 -32 34.5 -56t64.5 -37.5t91 -13.5q99 0 150.5 52t51.5 156v170h-6q-26 -59 -70 -99t-102.5 -60t-131.5 -20q-134 0 -236.5 66t-160 186t-57.5 282q0 166 58.5 289t161 191t232.5 68q73 0 131.5 -22t103 -62
t74.5 -95h3v158h343v-1020q0 -167 -67 -274.5t-189 -158.5t-288 -51zM613 275q66 0 114.5 33.5t75.5 95t27 144.5q0 84 -27 145.5t-75.5 95t-114.5 33.5q-64 0 -110 -33t-71 -94.5t-25 -146.5t25 -146t71 -94t110 -33zM481 1206h-265v2l262 311h263l267 -311v-2h-266
l-132 164z" />
    <glyph glyph-name="Gbreve" unicode="&#x11e;" horiz-adv-x="1518" 
d="M777 -23q-215 0 -376.5 94.5t-251.5 267t-90 405.5q0 243 94 415.5t256 263t363 90.5q131 0 246 -37.5t204 -107.5t145 -166t68 -214h-363q-11 49 -35 88.5t-61 67t-85 42t-108 14.5q-114 0 -195 -54t-124 -155.5t-43 -245.5t43 -245.5t125 -155.5t198 -54q97 0 166.5 33
t107 93t37.5 140l77 -8h-375v263h647v-200q0 -192 -85 -334.5t-236 -221t-349 -78.5zM762 1612q-104 0 -187 43t-131 116t-48 162h196q0 -63 48 -104t122 -41q73 0 120.5 41t47.5 104h199q0 -89 -48.5 -162t-131 -116t-187.5 -43z" />
    <glyph glyph-name="gbreve" unicode="&#x11f;" horiz-adv-x="1264" 
d="M620 -434q-159 0 -267.5 43.5t-169 119.5t-77.5 175l323 13q9 -32 34.5 -56t64.5 -37.5t91 -13.5q99 0 150.5 52t51.5 156v170h-6q-26 -59 -70 -99t-102.5 -60t-131.5 -20q-134 0 -236.5 66t-160 186t-57.5 282q0 166 58.5 289t161 191t232.5 68q73 0 131.5 -22t103 -62
t74.5 -95h3v158h343v-1020q0 -167 -67 -274.5t-189 -158.5t-288 -51zM613 275q66 0 114.5 33.5t75.5 95t27 144.5q0 84 -27 145.5t-75.5 95t-114.5 33.5q-64 0 -110 -33t-71 -94.5t-25 -146.5t25 -146t71 -94t110 -33zM612 1192q-104 0 -187 43t-131 116t-48 162h196
q0 -63 48 -104t122 -41q73 0 120.5 41t47.5 104h199q0 -89 -48.5 -162t-131 -116t-187.5 -43z" />
    <glyph glyph-name="Gdotaccent" unicode="&#x120;" horiz-adv-x="1518" 
d="M777 -23q-215 0 -376.5 94.5t-251.5 267t-90 405.5q0 243 94 415.5t256 263t363 90.5q131 0 246 -37.5t204 -107.5t145 -166t68 -214h-363q-11 49 -35 88.5t-61 67t-85 42t-108 14.5q-114 0 -195 -54t-124 -155.5t-43 -245.5t43 -245.5t125 -155.5t198 -54q97 0 166.5 33
t107 93t37.5 140l77 -8h-375v263h647v-200q0 -192 -85 -334.5t-236 -221t-349 -78.5zM762 1599q-81 0 -134.5 49t-53.5 124q0 74 53.5 123t133.5 49q82 0 135 -49t53 -124q0 -74 -53 -123t-134 -49z" />
    <glyph glyph-name="gdotaccent" unicode="&#x121;" horiz-adv-x="1264" 
d="M620 -434q-159 0 -267.5 43.5t-169 119.5t-77.5 175l323 13q9 -32 34.5 -56t64.5 -37.5t91 -13.5q99 0 150.5 52t51.5 156v170h-6q-26 -59 -70 -99t-102.5 -60t-131.5 -20q-134 0 -236.5 66t-160 186t-57.5 282q0 166 58.5 289t161 191t232.5 68q73 0 131.5 -22t103 -62
t74.5 -95h3v158h343v-1020q0 -167 -67 -274.5t-189 -158.5t-288 -51zM613 275q66 0 114.5 33.5t75.5 95t27 144.5q0 84 -27 145.5t-75.5 95t-114.5 33.5q-64 0 -110 -33t-71 -94.5t-25 -146.5t25 -146t71 -94t110 -33zM612 1179q-81 0 -134.5 49t-53.5 124q0 74 53.5 123
t133.5 49q82 0 135 -49t53 -124q0 -74 -53 -123t-134 -49z" />
    <glyph glyph-name="uni0122" unicode="&#x122;" horiz-adv-x="1518" 
d="M777 -23q-215 0 -376.5 94.5t-251.5 267t-90 405.5q0 243 94 415.5t256 263t363 90.5q131 0 246 -37.5t204 -107.5t145 -166t68 -214h-363q-11 49 -35 88.5t-61 67t-85 42t-108 14.5q-114 0 -195 -54t-124 -155.5t-43 -245.5t43 -245.5t125 -155.5t198 -54q97 0 166.5 33
t107 93t37.5 140l77 -8h-375v263h647v-200q0 -192 -85 -334.5t-236 -221t-349 -78.5zM511 -473l92 355h317l-170 -355h-239z" />
    <glyph glyph-name="uni0123" unicode="&#x123;" horiz-adv-x="1264" 
d="M620 -434q-159 0 -267.5 43.5t-169 119.5t-77.5 175l323 13q9 -32 34.5 -56t64.5 -37.5t91 -13.5q99 0 150.5 52t51.5 156v170h-6q-26 -59 -70 -99t-102.5 -60t-131.5 -20q-134 0 -236.5 66t-160 186t-57.5 282q0 166 58.5 289t161 191t232.5 68q73 0 131.5 -22t103 -62
t74.5 -95h3v158h343v-1020q0 -167 -67 -274.5t-189 -158.5t-288 -51zM613 275q66 0 114.5 33.5t75.5 95t27 144.5q0 84 -27 145.5t-75.5 95t-114.5 33.5q-64 0 -110 -33t-71 -94.5t-25 -146.5t25 -146t71 -94t110 -33zM494 1187v141q0 84 18.5 148t51 109.5t74.5 73.5
l167 -74q-25 -38 -52.5 -107.5t-27.5 -161.5v-129h-231z" />
    <glyph glyph-name="Hcircumflex" unicode="&#x124;" horiz-adv-x="1491" 
d="M101 0v1490h358v-580h573v580h358v-1490h-358v608h-573v-608h-358zM614 1626h-265v2l262 311h263l267 -311v-2h-266l-132 164z" />
    <glyph glyph-name="hcircumflex" unicode="&#x125;" horiz-adv-x="1247" 
d="M446 588v-588h-346v1490h344v-703h-48q48 138 139.5 221t242.5 83q116 0 198 -50t126.5 -143.5t44.5 -223.5v-674h-346v604q0 94 -45.5 144t-128.5 50q-55 0 -96 -23t-63 -69.5t-22 -117.5zM140 1626h-265v2l262 311h263l267 -311v-2h-266l-132 164z" />
    <glyph glyph-name="Hbar" unicode="&#x126;" horiz-adv-x="1641" 
d="M1594 1246v-182h-1546v182h1546zM171 0v1490h358v-580h573v580h358v-1490h-358v608h-573v-608h-358z" />
    <glyph glyph-name="hbar" unicode="&#x127;" horiz-adv-x="1247" 
d="M446 588v-588h-346v1490h344v-703h-48q48 138 139.5 221t242.5 83q116 0 198 -50t126.5 -143.5t44.5 -223.5v-674h-346v604q0 94 -45.5 144t-128.5 50q-55 0 -96 -23t-63 -69.5t-22 -117.5zM-37 1172v198h795v-198h-795z" />
    <glyph glyph-name="Itilde" unicode="&#x128;" horiz-adv-x="559" 
d="M459 1490v-1490h-358v1490h358zM424 1637q-52 0 -90.5 16.5t-67.5 39t-54 39t-51 16.5q-33 0 -50.5 -28t-19.5 -76h-180q3 141 66 213.5t160 72.5q52 0 90.5 -16t67.5 -37.5t54 -38t51 -16.5q38 0 54.5 26.5t18.5 76.5h177q-2 -140 -66.5 -214t-159.5 -74z" />
    <glyph glyph-name="itilde" unicode="&#x129;" horiz-adv-x="546" 
d="M100 0v1070h346v-1070h-346zM416 1217q-52 0 -90.5 16.5t-67.5 39t-54 39t-51 16.5q-33 0 -50.5 -28t-19.5 -76h-180q3 141 66 213.5t160 72.5q52 0 90.5 -16t67.5 -37.5t54 -38t51 -16.5q38 0 54.5 26.5t18.5 76.5h177q-2 -140 -66.5 -214t-159.5 -74z" />
    <glyph glyph-name="Imacron" unicode="&#x12a;" horiz-adv-x="559" 
d="M459 1490v-1490h-358v1490h358zM574 1871v-210h-588v210h588z" />
    <glyph glyph-name="imacron" unicode="&#x12b;" horiz-adv-x="546" 
d="M100 0v1070h346v-1070h-346zM567 1451v-210h-588v210h588z" />
    <glyph glyph-name="Ibreve" unicode="&#x12c;" horiz-adv-x="559" 
d="M459 1490v-1490h-358v1490h358zM280 1612q-104 0 -187 43t-131 116t-48 162h196q0 -63 48 -104t122 -41q73 0 120.5 41t47.5 104h199q0 -89 -48.5 -162t-131 -116t-187.5 -43z" />
    <glyph glyph-name="ibreve" unicode="&#x12d;" horiz-adv-x="546" 
d="M100 0v1070h346v-1070h-346zM273 1192q-104 0 -187 43t-131 116t-48 162h196q0 -63 48 -104t122 -41q73 0 120.5 41t47.5 104h199q0 -89 -48.5 -162t-131 -116t-187.5 -43z" />
    <glyph glyph-name="Iogonek" unicode="&#x12e;" horiz-adv-x="559" 
d="M459 1490v-1490h-358v1490h358zM288 -420q-140 0 -218.5 55t-78.5 156q0 70 37 129t105 112l326 -32q-80 -45 -111.5 -79t-31.5 -73q0 -32 19.5 -48t57.5 -16q15 0 30.5 1.5t30.5 3.5l14 -198q-36 -5 -87 -8t-93 -3z" />
    <glyph glyph-name="iogonek" unicode="&#x12f;" horiz-adv-x="546" 
d="M100 0v1070h346v-1070h-346zM275 -420q-140 0 -218.5 55t-78.5 156q0 70 37 129t105 112l326 -32q-80 -45 -111.5 -79t-31.5 -73q0 -32 19.5 -48t57.5 -16q15 0 30.5 1.5t30.5 3.5l14 -198q-36 -5 -87 -8t-93 -3zM272 1179q-81 0 -134.5 49t-53.5 124q0 74 53.5 123
t133.5 49q82 0 135 -49t53 -124q0 -74 -53 -123t-134 -49z" />
    <glyph glyph-name="Idotaccent" unicode="&#x130;" horiz-adv-x="559" 
d="M459 1490v-1490h-358v1490h358zM280 1599q-81 0 -134.5 49t-53.5 124q0 74 53.5 123t133.5 49q82 0 135 -49t53 -124q0 -74 -53 -123t-134 -49z" />
    <glyph glyph-name="dotlessi" unicode="&#x131;" horiz-adv-x="546" 
d="M100 0v1070h346v-1070h-346z" />
    <glyph glyph-name="IJ" unicode="&#x132;" horiz-adv-x="1741" 
d="M459 1490v-1490h-358v1490h358zM1122 -22q-241 0 -375.5 125t-134.5 358v104h339v-108q0 -90 44 -137t123 -47q78 0 122 47t44 137v1033h357v-1036q0 -229 -136.5 -352.5t-382.5 -123.5z" />
    <glyph glyph-name="ij" unicode="&#x133;" horiz-adv-x="1093" 
d="M100 0v1070h346v-1070h-346zM272 1179q-81 0 -134.5 49t-53.5 124q0 74 53.5 123t133.5 49q82 0 135 -49t53 -124q0 -74 -53 -123t-134 -49zM647 1070h346v-1131q0 -120 -46 -199t-135 -118.5t-220 -39.5h-120v267h64q60 0 85.5 28t25.5 91v1102zM819 1179
q-81 0 -134.5 49t-53.5 124q0 74 53.5 123t133.5 49q82 0 135 -49t53 -124q0 -74 -53 -123t-134 -49z" />
    <glyph glyph-name="Jcircumflex" unicode="&#x134;" horiz-adv-x="1182" 
d="M563 -22q-241 0 -375.5 125t-134.5 358v104h339v-108q0 -90 44 -137t123 -47q78 0 122 47t44 137v1033h357v-1036q0 -229 -136.5 -352.5t-382.5 -123.5zM773 1626h-265v2l262 311h263l267 -311v-2h-266l-132 164z" />
    <glyph glyph-name="jcircumflex" unicode="&#x135;" horiz-adv-x="547" 
d="M101 1070h346v-1131q0 -120 -46 -199t-135 -118.5t-220 -39.5h-120v267h64q60 0 85.5 28t25.5 91v1102zM143 1206h-265v2l262 311h263l267 -311v-2h-266l-132 164z" />
    <glyph glyph-name="uni0136" unicode="&#x136;" horiz-adv-x="1461" 
d="M364 272v411q49 69 97.5 134.5t99.5 130.5t107 135l333 407h423l-626 -746l-31 3zM101 0v1490h358v-367l-2 -402l2 -172v-549h-358zM1032 0l-404 638l217 269l601 -907h-414zM474 -473l92 355h317l-170 -355h-239z" />
    <glyph glyph-name="uni0137" unicode="&#x137;" horiz-adv-x="1174" 
d="M411 279v409h41l321 382h397l-465 -551h-90zM100 0v1490h346v-1490h-346zM788 0l-295 443l226 242l468 -685h-399zM353 -473l92 355h317l-170 -355h-239z" />
    <glyph glyph-name="kgreenlandic" unicode="&#x138;" horiz-adv-x="1210" 
d="M447 1070v-1070h-347v1070h347zM1223 1070l-492 -673h-341l-23 264h175l276 409h405zM801 0l-264 415l280 158l401 -573h-417z" />
    <glyph glyph-name="Lacute" unicode="&#x139;" horiz-adv-x="1158" 
d="M101 0v1490h358v-1188h652v-302h-1010zM147 1620l176 319h323l-264 -319h-235z" />
    <glyph glyph-name="lacute" unicode="&#x13a;" horiz-adv-x="546" 
d="M446 1490v-1490h-346v1490h346zM141 1620l176 319h323l-264 -319h-235z" />
    <glyph glyph-name="uni013B" unicode="&#x13b;" horiz-adv-x="1158" 
d="M101 0v1490h358v-1188h652v-302h-1010zM343 -473l92 355h317l-170 -355h-239z" />
    <glyph glyph-name="uni013C" unicode="&#x13c;" horiz-adv-x="546" 
d="M446 1490v-1490h-346v1490h346zM24 -473l92 355h317l-170 -355h-239z" />
    <glyph glyph-name="Lcaron" unicode="&#x13d;" horiz-adv-x="1158" 
d="M101 0v1490h358v-1188h652v-302h-1010zM670 1182v386h249l-53 -386h-196z" />
    <glyph glyph-name="lcaron" unicode="&#x13e;" horiz-adv-x="822" 
d="M446 1490v-1490h-346v1490h346zM568 1182v386h249l-53 -386h-196z" />
    <glyph glyph-name="Ldot" unicode="&#x13f;" horiz-adv-x="1165" 
d="M107 0v1490h358v-1188h652v-302h-1010zM751 678q-81 0 -134.5 49t-53.5 124q0 74 53.5 123t133.5 49q82 0 135 -49t53 -124q0 -74 -53 -123t-134 -49z" />
    <glyph glyph-name="ldot" unicode="&#x140;" horiz-adv-x="945" 
d="M446 1490v-1490h-346v1490h346zM723 557q-78 0 -133 54.5t-55 133.5q0 78 55 132.5t133 54.5q79 0 133.5 -54.5t54.5 -132.5q0 -79 -54.5 -133.5t-133.5 -54.5z" />
    <glyph glyph-name="Lslash" unicode="&#x141;" horiz-adv-x="1249" 
d="M191 0v1490h358v-1188h652v-302h-1010zM-5 342v293l888 512v-292z" />
    <glyph glyph-name="lslash" unicode="&#x142;" horiz-adv-x="546" 
d="M446 1490v-1490h-346v1490h346zM-37 465v256l619 357v-256z" />
    <glyph glyph-name="Nacute" unicode="&#x143;" horiz-adv-x="1514" 
d="M101 0v1490h375l422 -676q27 -44 62.5 -108t74.5 -138.5t74 -149.5l-40 -76q-4 76 -8 173t-6 187t-2 145v643h360v-1490h-376l-387 620q-33 54 -75.5 127.5t-91 164.5t-102.5 194l62 23q7 -108 11 -207t5.5 -177.5t1.5 -124.5v-620h-360zM626 1620l176 319h323l-264 -319
h-235z" />
    <glyph glyph-name="nacute" unicode="&#x144;" horiz-adv-x="1247" 
d="M446 588v-588h-346v1070h337l2 -283h-43q48 138 139.5 221t242.5 83q116 0 198 -50t126.5 -143.5t44.5 -223.5v-674h-346v604q0 94 -45.5 144t-128.5 50q-55 0 -96 -23t-63 -69.5t-22 -117.5zM491 1200l176 319h323l-264 -319h-235z" />
    <glyph glyph-name="uni0145" unicode="&#x145;" horiz-adv-x="1514" 
d="M101 0v1490h375l422 -676q27 -44 62.5 -108t74.5 -138.5t74 -149.5l-40 -76q-4 76 -8 173t-6 187t-2 145v643h360v-1490h-376l-387 620q-33 54 -75.5 127.5t-91 164.5t-102.5 194l62 23q7 -108 11 -207t5.5 -177.5t1.5 -124.5v-620h-360zM510 -473l92 355h317l-170 -355
h-239z" />
    <glyph glyph-name="uni0146" unicode="&#x146;" horiz-adv-x="1247" 
d="M446 588v-588h-346v1070h337l2 -283h-43q48 138 139.5 221t242.5 83q116 0 198 -50t126.5 -143.5t44.5 -223.5v-674h-346v604q0 94 -45.5 144t-128.5 50q-55 0 -96 -23t-63 -69.5t-22 -117.5zM375 -473l92 355h317l-170 -355h-239z" />
    <glyph glyph-name="Ncaron" unicode="&#x147;" horiz-adv-x="1514" 
d="M101 0v1490h375l422 -676q27 -44 62.5 -108t74.5 -138.5t74 -149.5l-40 -76q-4 76 -8 173t-6 187t-2 145v643h360v-1490h-376l-387 620q-33 54 -75.5 127.5t-91 164.5t-102.5 194l62 23q7 -108 11 -207t5.5 -177.5t1.5 -124.5v-620h-360zM627 1939l129 -165l132 165h266
v-2l-267 -311h-263l-262 311v2h265z" />
    <glyph glyph-name="ncaron" unicode="&#x148;" horiz-adv-x="1247" 
d="M446 588v-588h-346v1070h337l2 -283h-43q48 138 139.5 221t242.5 83q116 0 198 -50t126.5 -143.5t44.5 -223.5v-674h-346v604q0 94 -45.5 144t-128.5 50q-55 0 -96 -23t-63 -69.5t-22 -117.5zM491 1519l129 -165l132 165h266v-2l-267 -311h-263l-262 311v2h265z" />
    <glyph glyph-name="Eng" unicode="&#x14a;" horiz-adv-x="1514" 
d="M838 -418v277q19 -1 52.5 -1.5t69.5 -0.5q51 0 73.5 21t22.5 65v176h357v-195q0 -172 -97 -259t-291 -87q-57 0 -106 1t-81 3zM101 0v1490h375l422 -676q27 -44 62.5 -108t74.5 -138.5t74 -149.5l-40 -76q-4 76 -8 173t-6 187t-2 145v643h360v-1490h-376l-387 620
q-33 54 -75.5 127.5t-91 164.5t-102.5 194l62 23q7 -108 11 -207t5.5 -177.5t1.5 -124.5v-620h-360z" />
    <glyph glyph-name="eng" unicode="&#x14b;" horiz-adv-x="1247" 
d="M604 -418v274q27 -1 49.5 -1.5t50.5 -0.5q52 0 74.5 21.5t22.5 67.5v57h346v-76q0 -172 -92.5 -259t-286.5 -87q-58 0 -95 1t-69 3zM446 588v-588h-346v1070h337l2 -283h-43q48 138 139.5 221t242.5 83q116 0 198 -50t126.5 -143.5t44.5 -223.5v-674h-346v604
q0 94 -45.5 144t-128.5 50q-55 0 -96 -23t-63 -69.5t-22 -117.5z" />
    <glyph glyph-name="Omacron" unicode="&#x14c;" horiz-adv-x="1541" 
d="M771 -23q-202 0 -363.5 91t-255 262.5t-93.5 413.5q0 244 93.5 416t255 262.5t363.5 90.5q201 0 362 -90.5t255.5 -262.5t94.5 -416q0 -243 -94.5 -414.5t-255.5 -262t-362 -90.5zM771 290q107 0 185.5 53t121.5 155t43 246q0 145 -43 247.5t-121.5 155.5t-185.5 53
t-185.5 -53t-121.5 -155.5t-43 -247.5q0 -144 43 -246t121.5 -155t185.5 -53zM1065 1871v-210h-588v210h588z" />
    <glyph glyph-name="omacron" unicode="&#x14d;" horiz-adv-x="1227" 
d="M614 -23q-168 0 -293.5 69t-194.5 194t-69 294q0 168 69 293t194.5 195t293.5 70t293 -70t194 -195t69 -293q0 -169 -69 -294t-194 -194t-293 -69zM614 249q61 0 107.5 34t72.5 98t26 153q0 91 -26 154t-72.5 97t-107.5 34q-62 0 -109 -33.5t-72.5 -97t-25.5 -154.5
q0 -90 25.5 -153.5t72.5 -97.5t109 -34zM907 1451v-210h-588v210h588z" />
    <glyph glyph-name="Obreve" unicode="&#x14e;" horiz-adv-x="1541" 
d="M771 -23q-202 0 -363.5 91t-255 262.5t-93.5 413.5q0 244 93.5 416t255 262.5t363.5 90.5q201 0 362 -90.5t255.5 -262.5t94.5 -416q0 -243 -94.5 -414.5t-255.5 -262t-362 -90.5zM771 290q107 0 185.5 53t121.5 155t43 246q0 145 -43 247.5t-121.5 155.5t-185.5 53
t-185.5 -53t-121.5 -155.5t-43 -247.5q0 -144 43 -246t121.5 -155t185.5 -53zM770 1612q-104 0 -187 43t-131 116t-48 162h196q0 -63 48 -104t122 -41q73 0 120.5 41t47.5 104h199q0 -89 -48.5 -162t-131 -116t-187.5 -43z" />
    <glyph glyph-name="obreve" unicode="&#x14f;" horiz-adv-x="1227" 
d="M614 -23q-168 0 -293.5 69t-194.5 194t-69 294q0 168 69 293t194.5 195t293.5 70t293 -70t194 -195t69 -293q0 -169 -69 -294t-194 -194t-293 -69zM614 249q61 0 107.5 34t72.5 98t26 153q0 91 -26 154t-72.5 97t-107.5 34q-62 0 -109 -33.5t-72.5 -97t-25.5 -154.5
q0 -90 25.5 -153.5t72.5 -97.5t109 -34zM613 1192q-104 0 -187 43t-131 116t-48 162h196q0 -63 48 -104t122 -41q73 0 120.5 41t47.5 104h199q0 -89 -48.5 -162t-131 -116t-187.5 -43z" />
    <glyph glyph-name="Ohungarumlaut" unicode="&#x150;" horiz-adv-x="1541" 
d="M771 -23q-202 0 -363.5 91t-255 262.5t-93.5 413.5q0 244 93.5 416t255 262.5t363.5 90.5q201 0 362 -90.5t255.5 -262.5t94.5 -416q0 -243 -94.5 -414.5t-255.5 -262t-362 -90.5zM771 290q107 0 185.5 53t121.5 155t43 246q0 145 -43 247.5t-121.5 155.5t-185.5 53
t-185.5 -53t-121.5 -155.5t-43 -247.5q0 -144 43 -246t121.5 -155t185.5 -53zM641 1620h-235l132 319h295zM1008 1620h-241l197 319h321z" />
    <glyph glyph-name="ohungarumlaut" unicode="&#x151;" horiz-adv-x="1227" 
d="M614 -23q-168 0 -293.5 69t-194.5 194t-69 294q0 168 69 293t194.5 195t293.5 70t293 -70t194 -195t69 -293q0 -169 -69 -294t-194 -194t-293 -69zM614 249q61 0 107.5 34t72.5 98t26 153q0 91 -26 154t-72.5 97t-107.5 34q-62 0 -109 -33.5t-72.5 -97t-25.5 -154.5
q0 -90 25.5 -153.5t72.5 -97.5t109 -34zM484 1200h-235l132 319h295zM851 1200h-241l197 319h321z" />
    <glyph glyph-name="OE" unicode="&#x152;" horiz-adv-x="2128" 
d="M798 0q-227 0 -393 91t-256 258.5t-90 395.5t90.5 395.5t257 258.5t391.5 91h375v-300h-353q-134 0 -223.5 -49t-134 -147.5t-44.5 -248.5q0 -149 44 -248t132 -148t220 -49h353v-300h-369zM965 0v1490h1093v-302h-735v-292h678v-293h-678v-301h735v-302h-1093z" />
    <glyph glyph-name="oe" unicode="&#x153;" horiz-adv-x="1959" 
d="M614 -23q-168 0 -293.5 69t-194.5 194t-69 294q0 168 69 293t194.5 195t293.5 70t293 -70t194 -195t69 -293q0 -169 -69 -294t-194 -194t-293 -69zM614 249q61 0 107.5 34t72.5 98t26 153q0 91 -26 154t-72.5 97t-107.5 34q-62 0 -109 -33.5t-72.5 -97t-25.5 -154.5
q0 -90 25.5 -153.5t72.5 -97.5t109 -34zM1380 -23q-165 0 -288.5 70t-191.5 196t-68 291q0 164 68 289.5t189.5 197t280.5 71.5q119 0 217 -39.5t169.5 -112t111 -173.5t39.5 -225v-92h-961v205h798l-158 -43q0 70 -25 120.5t-71.5 78t-112.5 27.5q-65 0 -111.5 -27.5
t-71.5 -77.5t-25 -120v-150q0 -74 26.5 -127.5t76.5 -81.5t119 -28q50 0 89.5 14t66.5 39.5t40 60.5l310 -11q-21 -104 -93 -183.5t-181 -124t-243 -44.5z" />
    <glyph glyph-name="Racute" unicode="&#x154;" horiz-adv-x="1349" 
d="M101 0v1490h613q171 0 296.5 -61t193 -173.5t67.5 -267.5q0 -151 -70.5 -261t-199.5 -169t-305 -59h-378v282h360q75 0 128 25t82 71.5t29 110.5q0 65 -29 111.5t-82 72t-128 25.5h-219v-1197h-358zM932 0l-339 676h373l347 -676h-381zM538 1620l176 319h323l-264 -319
h-235z" />
    <glyph glyph-name="racute" unicode="&#x155;" horiz-adv-x="818" 
d="M100 0v1070h335v-190h4q30 103 93 149.5t166 46.5q27 0 50.5 -1t44.5 -3v-288q-20 2 -60 4t-76 2q-62 0 -110 -28t-74.5 -80t-26.5 -126v-556h-346zM316 1200l176 319h323l-264 -319h-235z" />
    <glyph glyph-name="uni0156" unicode="&#x156;" horiz-adv-x="1349" 
d="M101 0v1490h613q171 0 296.5 -61t193 -173.5t67.5 -267.5q0 -151 -70.5 -261t-199.5 -169t-305 -59h-378v282h360q75 0 128 25t82 71.5t29 110.5q0 65 -29 111.5t-82 72t-128 25.5h-219v-1197h-358zM932 0l-339 676h373l347 -676h-381zM434 -473l92 355h317l-170 -355
h-239z" />
    <glyph glyph-name="uni0157" unicode="&#x157;" horiz-adv-x="818" 
d="M100 0v1070h335v-190h4q30 103 93 149.5t166 46.5q27 0 50.5 -1t44.5 -3v-288q-20 2 -60 4t-76 2q-62 0 -110 -28t-74.5 -80t-26.5 -126v-556h-346zM25 -473l92 355h317l-170 -355h-239z" />
    <glyph glyph-name="Rcaron" unicode="&#x158;" horiz-adv-x="1349" 
d="M101 0v1490h613q171 0 296.5 -61t193 -173.5t67.5 -267.5q0 -151 -70.5 -261t-199.5 -169t-305 -59h-378v282h360q75 0 128 25t82 71.5t29 110.5q0 65 -29 111.5t-82 72t-128 25.5h-219v-1197h-358zM932 0l-339 676h373l347 -676h-381zM539 1939l129 -165l132 165h266v-2
l-267 -311h-263l-262 311v2h265z" />
    <glyph glyph-name="rcaron" unicode="&#x159;" horiz-adv-x="818" 
d="M100 0v1070h335v-190h4q30 103 93 149.5t166 46.5q27 0 50.5 -1t44.5 -3v-288q-20 2 -60 4t-76 2q-62 0 -110 -28t-74.5 -80t-26.5 -126v-556h-346zM317 1519l129 -165l132 165h266v-2l-267 -311h-263l-262 311v2h265z" />
    <glyph glyph-name="Sacute" unicode="&#x15a;" horiz-adv-x="1365" 
d="M689 -23q-195 0 -334 59.5t-212.5 174.5t-74.5 281h342q3 -71 38 -121.5t97 -77t146 -26.5q76 0 131.5 20t86.5 56.5t31 84.5q0 43 -26.5 74t-82.5 54.5t-144 41.5l-153 33q-213 44 -324 149.5t-111 269.5q0 139 74 243t206 162t305 58q177 0 306 -58.5t200.5 -166.5
t75.5 -258h-335q-7 90 -72 141.5t-172 51.5q-67 0 -118.5 -19.5t-79.5 -54.5t-28 -80q0 -43 25 -72.5t77.5 -51.5t133.5 -39l131 -27q120 -24 208 -62t146 -91t86 -122t28 -156q0 -148 -72 -253.5t-208 -161.5t-327 -56zM549 1620l176 319h323l-264 -319h-235z" />
    <glyph glyph-name="sacute" unicode="&#x15b;" horiz-adv-x="1119" 
d="M568 -25q-146 0 -258.5 43.5t-180 124t-79.5 191.5l336 11q11 -61 56.5 -96t123.5 -35q72 0 112.5 25t40.5 66q0 35 -33 57t-97 34l-192 35q-159 29 -240.5 108t-81.5 205q0 106 57.5 183.5t164.5 120t255 42.5q147 0 254 -43t168 -121.5t67 -187.5l-315 -11
q-4 55 -49 90.5t-114 35.5q-66 0 -105 -26t-39 -65q0 -34 29.5 -56.5t87.5 -34.5l212 -38q165 -31 243 -102t78 -189q0 -110 -63 -192.5t-176.5 -128.5t-261.5 -46zM430 1200l176 319h323l-264 -319h-235z" />
    <glyph glyph-name="Scircumflex" unicode="&#x15c;" horiz-adv-x="1365" 
d="M689 -23q-195 0 -334 59.5t-212.5 174.5t-74.5 281h342q3 -71 38 -121.5t97 -77t146 -26.5q76 0 131.5 20t86.5 56.5t31 84.5q0 43 -26.5 74t-82.5 54.5t-144 41.5l-153 33q-213 44 -324 149.5t-111 269.5q0 139 74 243t206 162t305 58q177 0 306 -58.5t200.5 -166.5
t75.5 -258h-335q-7 90 -72 141.5t-172 51.5q-67 0 -118.5 -19.5t-79.5 -54.5t-28 -80q0 -43 25 -72.5t77.5 -51.5t133.5 -39l131 -27q120 -24 208 -62t146 -91t86 -122t28 -156q0 -148 -72 -253.5t-208 -161.5t-327 -56zM550 1626h-265v2l262 311h263l267 -311v-2h-266
l-132 164z" />
    <glyph glyph-name="scircumflex" unicode="&#x15d;" horiz-adv-x="1119" 
d="M568 -25q-146 0 -258.5 43.5t-180 124t-79.5 191.5l336 11q11 -61 56.5 -96t123.5 -35q72 0 112.5 25t40.5 66q0 35 -33 57t-97 34l-192 35q-159 29 -240.5 108t-81.5 205q0 106 57.5 183.5t164.5 120t255 42.5q147 0 254 -43t168 -121.5t67 -187.5l-315 -11
q-4 55 -49 90.5t-114 35.5q-66 0 -105 -26t-39 -65q0 -34 29.5 -56.5t87.5 -34.5l212 -38q165 -31 243 -102t78 -189q0 -110 -63 -192.5t-176.5 -128.5t-261.5 -46zM431 1206h-265v2l262 311h263l267 -311v-2h-266l-132 164z" />
    <glyph glyph-name="Scedilla" unicode="&#x15e;" horiz-adv-x="1365" 
d="M689 -23q-195 0 -334 59.5t-212.5 174.5t-74.5 281h342q3 -71 38 -121.5t97 -77t146 -26.5q76 0 131.5 20t86.5 56.5t31 84.5q0 43 -26.5 74t-82.5 54.5t-144 41.5l-153 33q-213 44 -324 149.5t-111 269.5q0 139 74 243t206 162t305 58q177 0 306 -58.5t200.5 -166.5
t75.5 -258h-335q-7 90 -72 141.5t-172 51.5q-67 0 -118.5 -19.5t-79.5 -54.5t-28 -80q0 -43 25 -72.5t77.5 -51.5t133.5 -39l131 -27q120 -24 208 -62t146 -91t86 -122t28 -156q0 -148 -72 -253.5t-208 -161.5t-327 -56zM548 -418v129h121q43 0 64 14.5t21 43.5
q0 28 -21 42.5t-64 14.5h-86l39 216h127v-42l-2 -80q91 1 141 -44.5t50 -118.5q0 -87 -62 -131t-180 -44h-148z" />
    <glyph glyph-name="scedilla" unicode="&#x15f;" horiz-adv-x="1119" 
d="M568 -25q-146 0 -258.5 43.5t-180 124t-79.5 191.5l336 11q11 -61 56.5 -96t123.5 -35q72 0 112.5 25t40.5 66q0 35 -33 57t-97 34l-192 35q-159 29 -240.5 108t-81.5 205q0 106 57.5 183.5t164.5 120t255 42.5q147 0 254 -43t168 -121.5t67 -187.5l-315 -11
q-4 55 -49 90.5t-114 35.5q-66 0 -105 -26t-39 -65q0 -34 29.5 -56.5t87.5 -34.5l212 -38q165 -31 243 -102t78 -189q0 -110 -63 -192.5t-176.5 -128.5t-261.5 -46zM428 -418v129h121q43 0 64 14.5t21 43.5q0 28 -21 42.5t-64 14.5h-86l39 216h127v-42l-2 -80
q91 1 141 -44.5t50 -118.5q0 -87 -62 -131t-180 -44h-148z" />
    <glyph glyph-name="Scaron" unicode="&#x160;" horiz-adv-x="1365" 
d="M689 -23q-195 0 -334 59.5t-212.5 174.5t-74.5 281h342q3 -71 38 -121.5t97 -77t146 -26.5q76 0 131.5 20t86.5 56.5t31 84.5q0 43 -26.5 74t-82.5 54.5t-144 41.5l-153 33q-213 44 -324 149.5t-111 269.5q0 139 74 243t206 162t305 58q177 0 306 -58.5t200.5 -166.5
t75.5 -258h-335q-7 90 -72 141.5t-172 51.5q-67 0 -118.5 -19.5t-79.5 -54.5t-28 -80q0 -43 25 -72.5t77.5 -51.5t133.5 -39l131 -27q120 -24 208 -62t146 -91t86 -122t28 -156q0 -148 -72 -253.5t-208 -161.5t-327 -56zM550 1939l129 -165l132 165h266v-2l-267 -311h-263
l-262 311v2h265z" />
    <glyph glyph-name="scaron" unicode="&#x161;" horiz-adv-x="1119" 
d="M568 -25q-146 0 -258.5 43.5t-180 124t-79.5 191.5l336 11q11 -61 56.5 -96t123.5 -35q72 0 112.5 25t40.5 66q0 35 -33 57t-97 34l-192 35q-159 29 -240.5 108t-81.5 205q0 106 57.5 183.5t164.5 120t255 42.5q147 0 254 -43t168 -121.5t67 -187.5l-315 -11
q-4 55 -49 90.5t-114 35.5q-66 0 -105 -26t-39 -65q0 -34 29.5 -56.5t87.5 -34.5l212 -38q165 -31 243 -102t78 -189q0 -110 -63 -192.5t-176.5 -128.5t-261.5 -46zM431 1519l129 -165l132 165h266v-2l-267 -311h-263l-262 311v2h265z" />
    <glyph glyph-name="uni021A" unicode="&#x162;" horiz-adv-x="1336" 
d="M48 1188v302h1240v-302h-441v-1188h-358v1188h-441zM534 -418v129h121q43 0 64 14.5t21 43.5q0 28 -21 42.5t-64 14.5h-86l39 216h127v-42l-2 -80q91 1 141 -44.5t50 -118.5q0 -87 -62 -131t-180 -44h-148z" />
    <glyph glyph-name="uni0163" unicode="&#x163;" horiz-adv-x="799" 
d="M751 1070v-265h-732v265h732zM192 1353h346v-1001q0 -49 20.5 -68.5t75.5 -19.5q24 0 61 0.5t53 1.5l10 -263q-34 -4 -89 -5.5t-111 -1.5q-187 0 -276.5 74.5t-89.5 229.5v1053zM366 -418v129h121q43 0 64 14.5t21 43.5q0 28 -21 42.5t-64 14.5h-86l39 216h127v-42
l-2 -80q91 1 141 -44.5t50 -118.5q0 -87 -62 -131t-180 -44h-148z" />
    <glyph glyph-name="Tcaron" unicode="&#x164;" horiz-adv-x="1336" 
d="M48 1188v302h1240v-302h-441v-1188h-358v1188h-441zM538 1939l129 -165l132 165h266v-2l-267 -311h-263l-262 311v2h265z" />
    <glyph glyph-name="tcaron" unicode="&#x165;" horiz-adv-x="975" 
d="M751 1070v-265h-732v265h732zM192 1353h346v-1001q0 -49 20.5 -68.5t75.5 -19.5q24 0 61 0.5t53 1.5l10 -263q-34 -4 -89 -5.5t-111 -1.5q-187 0 -276.5 74.5t-89.5 229.5v1053zM668 1198v386h249l-53 -386h-196z" />
    <glyph glyph-name="Tbar" unicode="&#x166;" horiz-adv-x="1336" 
d="M48 1188v302h1240v-302h-441v-1188h-358v1188h-441zM211 574v232h914v-232h-914z" />
    <glyph glyph-name="tbar" unicode="&#x167;" horiz-adv-x="799" 
d="M751 692v-200h-732v200h732zM751 1070v-265h-732v265h732zM192 1353h346v-1001q0 -49 20.5 -68.5t75.5 -19.5q24 0 61 0.5t53 1.5l10 -263q-34 -4 -89 -5.5t-111 -1.5q-187 0 -276.5 74.5t-89.5 229.5v1053z" />
    <glyph glyph-name="Utilde" unicode="&#x168;" horiz-adv-x="1453" 
d="M727 -23q-190 0 -331 68.5t-219 192t-78 287.5v965h351v-935q0 -79 35 -140t97 -96t145 -35t145 35t96.5 95.5t34.5 140.5v935h351v-965q0 -164 -78 -287.5t-219 -192t-330 -68.5zM870 1637q-52 0 -90.5 16.5t-67.5 39t-54 39t-51 16.5q-33 0 -50.5 -28t-19.5 -76h-180
q3 141 66 213.5t160 72.5q52 0 90.5 -16t67.5 -37.5t54 -38t51 -16.5q38 0 54.5 26.5t18.5 76.5h177q-2 -140 -66.5 -214t-159.5 -74z" />
    <glyph glyph-name="utilde" unicode="&#x169;" horiz-adv-x="1247" 
d="M469 -21q-115 0 -198 50t-127 143.5t-44 223.5v674h346v-604q0 -93 45.5 -143.5t128.5 -50.5q55 0 95.5 23t63 69.5t22.5 117.5v588h346v-1070h-338l-1 283h43q-48 -138 -139.5 -221t-242.5 -83zM767 1217q-52 0 -90.5 16.5t-67.5 39t-54 39t-51 16.5q-33 0 -50.5 -28
t-19.5 -76h-180q3 141 66 213.5t160 72.5q52 0 90.5 -16t67.5 -37.5t54 -38t51 -16.5q38 0 54.5 26.5t18.5 76.5h177q-2 -140 -66.5 -214t-159.5 -74z" />
    <glyph glyph-name="Umacron" unicode="&#x16a;" horiz-adv-x="1453" 
d="M727 -23q-190 0 -331 68.5t-219 192t-78 287.5v965h351v-935q0 -79 35 -140t97 -96t145 -35t145 35t96.5 95.5t34.5 140.5v935h351v-965q0 -164 -78 -287.5t-219 -192t-330 -68.5zM1021 1871v-210h-588v210h588z" />
    <glyph glyph-name="umacron" unicode="&#x16b;" horiz-adv-x="1247" 
d="M469 -21q-115 0 -198 50t-127 143.5t-44 223.5v674h346v-604q0 -93 45.5 -143.5t128.5 -50.5q55 0 95.5 23t63 69.5t22.5 117.5v588h346v-1070h-338l-1 283h43q-48 -138 -139.5 -221t-242.5 -83zM917 1451v-210h-588v210h588z" />
    <glyph glyph-name="Ubreve" unicode="&#x16c;" horiz-adv-x="1453" 
d="M727 -23q-190 0 -331 68.5t-219 192t-78 287.5v965h351v-935q0 -79 35 -140t97 -96t145 -35t145 35t96.5 95.5t34.5 140.5v935h351v-965q0 -164 -78 -287.5t-219 -192t-330 -68.5zM726 1612q-104 0 -187 43t-131 116t-48 162h196q0 -63 48 -104t122 -41q73 0 120.5 41
t47.5 104h199q0 -89 -48.5 -162t-131 -116t-187.5 -43z" />
    <glyph glyph-name="ubreve" unicode="&#x16d;" horiz-adv-x="1247" 
d="M469 -21q-115 0 -198 50t-127 143.5t-44 223.5v674h346v-604q0 -93 45.5 -143.5t128.5 -50.5q55 0 95.5 23t63 69.5t22.5 117.5v588h346v-1070h-338l-1 283h43q-48 -138 -139.5 -221t-242.5 -83zM623 1192q-104 0 -187 43t-131 116t-48 162h196q0 -63 48 -104t122 -41
q73 0 120.5 41t47.5 104h199q0 -89 -48.5 -162t-131 -116t-187.5 -43z" />
    <glyph glyph-name="Uring" unicode="&#x16e;" horiz-adv-x="1453" 
d="M727 -23q-190 0 -331 68.5t-219 192t-78 287.5v965h351v-935q0 -79 35 -140t97 -96t145 -35t145 35t96.5 95.5t34.5 140.5v935h351v-965q0 -164 -78 -287.5t-219 -192t-330 -68.5zM727 1567q-77 0 -136 31t-93 85.5t-34 123.5t33.5 123t93 85.5t135.5 31.5
q77 0 136 -31.5t93 -85.5t34 -123t-34 -123.5t-93 -85.5t-135 -31zM727 1706q44 0 72.5 28.5t28.5 72.5t-28.5 72t-73.5 28q-44 0 -73 -28.5t-29 -71.5q0 -44 29 -72.5t74 -28.5z" />
    <glyph glyph-name="uring" unicode="&#x16f;" horiz-adv-x="1247" 
d="M469 -21q-115 0 -198 50t-127 143.5t-44 223.5v674h346v-604q0 -93 45.5 -143.5t128.5 -50.5q55 0 95.5 23t63 69.5t22.5 117.5v588h346v-1070h-338l-1 283h43q-48 -138 -139.5 -221t-242.5 -83zM623 1152q-74 0 -133.5 31.5t-94 86.5t-34.5 126q0 69 34.5 124t94 87
t133.5 32q76 0 135 -32t93.5 -87t34.5 -125t-34.5 -125t-93.5 -86.5t-135 -31.5zM623 1293q45 0 74 29.5t29 72.5q0 44 -29 73.5t-74 29.5q-43 0 -72.5 -29.5t-29.5 -72.5q0 -44 29.5 -73.5t72.5 -29.5z" />
    <glyph glyph-name="Uhungarumlaut" unicode="&#x170;" horiz-adv-x="1453" 
d="M727 -23q-190 0 -331 68.5t-219 192t-78 287.5v965h351v-935q0 -79 35 -140t97 -96t145 -35t145 35t96.5 95.5t34.5 140.5v935h351v-965q0 -164 -78 -287.5t-219 -192t-330 -68.5zM597 1620h-235l132 319h295zM964 1620h-241l197 319h321z" />
    <glyph glyph-name="uhungarumlaut" unicode="&#x171;" horiz-adv-x="1247" 
d="M469 -21q-115 0 -198 50t-127 143.5t-44 223.5v674h346v-604q0 -93 45.5 -143.5t128.5 -50.5q55 0 95.5 23t63 69.5t22.5 117.5v588h346v-1070h-338l-1 283h43q-48 -138 -139.5 -221t-242.5 -83zM494 1200h-235l132 319h295zM861 1200h-241l197 319h321z" />
    <glyph glyph-name="Uogonek" unicode="&#x172;" horiz-adv-x="1453" 
d="M727 -23q-190 0 -331 68.5t-219 192t-78 287.5v965h351v-935q0 -79 35 -140t97 -96t145 -35t145 35t96.5 95.5t34.5 140.5v935h351v-965q0 -164 -78 -287.5t-219 -192t-330 -68.5zM807 -420q-140 0 -219 55t-79 156q0 74 41 125t108 87.5t148 68.5t161.5 68t147.5 86
t108 122t41 177h90q0 -128 -37.5 -216t-96.5 -147t-125.5 -99t-125.5 -72t-96.5 -64.5t-37.5 -78.5q0 -32 19.5 -48t57.5 -16q15 0 30.5 1.5t30.5 3.5l14 -198q-36 -5 -87 -8t-93 -3z" />
    <glyph glyph-name="uogonek" unicode="&#x173;" horiz-adv-x="1247" 
d="M469 -21q-115 0 -198 50t-127 143.5t-44 223.5v674h346v-604q0 -93 45.5 -143.5t128.5 -50.5q55 0 95.5 23t63 69.5t22.5 117.5v588h346v-1070h-338l-1 283h43q-48 -138 -139.5 -221t-242.5 -83zM976 -420q-140 0 -218.5 55t-78.5 156q0 70 37 129t105 112l326 -32
q-80 -45 -111.5 -79t-31.5 -73q0 -32 19.5 -48t57.5 -16q15 0 30.5 1.5t30.5 3.5l14 -198q-36 -5 -87 -8t-93 -3z" />
    <glyph glyph-name="Wcircumflex" unicode="&#x174;" horiz-adv-x="2100" 
d="M412 0l-398 1490h388l148 -662q22 -100 41 -204t37.5 -208t35.5 -205h-76q20 101 39.5 205t40.5 208t44 204l159 662h358l158 -662q24 -100 45 -204t40.5 -208t39.5 -205h-77q18 101 36 205t37.5 208t40.5 204l149 662h388l-398 -1490h-398l-188 739q-24 97 -46.5 221
t-55.5 278h100q-34 -154 -55.5 -277.5t-46.5 -221.5l-187 -739h-399zM919 1626h-265v2l262 311h263l267 -311v-2h-266l-132 164z" />
    <glyph glyph-name="wcircumflex" unicode="&#x175;" horiz-adv-x="1739" 
d="M332 0l-325 1070h362l82 -342q27 -116 53.5 -243t51.5 -256h-44q28 129 58 256t59 243l88 342h306l87 -342q29 -116 58.5 -243t57.5 -256h-43q25 129 50 255.5t51 243.5l80 342h369l-326 -1070h-356l-116 396q-16 58 -32 122t-31.5 130t-31.5 127h59q-15 -61 -31 -127
t-31.5 -130t-32.5 -122l-117 -396h-355zM738 1206h-265v2l262 311h263l267 -311v-2h-266l-132 164z" />
    <glyph glyph-name="Ycircumflex" unicode="&#x176;" horiz-adv-x="1472" 
d="M568 0v535l-554 955h412l235 -439q31 -59 59.5 -117.5t56.5 -122.5h-63q26 64 53 123t57 117l224 439h410l-541 -955v-535h-349zM605 1626h-265v2l262 311h263l267 -311v-2h-266l-132 164z" />
    <glyph glyph-name="ycircumflex" unicode="&#x177;" horiz-adv-x="1191" 
d="M125 -412l17 264l124 -3q42 -3 69 6.5t43 33.5t25 64l14 48l-409 1069h362l159 -500q31 -102 57.5 -205.5t53.5 -210.5h-92q26 107 53.5 211t60.5 205l163 500h358l-459 -1212q-35 -94 -84.5 -156t-119 -92t-166.5 -30q-58 0 -117.5 2t-111.5 6zM446 1206h-265v2l262 311
h263l267 -311v-2h-266l-132 164z" />
    <glyph glyph-name="Ydieresis" unicode="&#x178;" horiz-adv-x="1472" 
d="M568 0v535l-554 955h412l235 -439q31 -59 59.5 -117.5t56.5 -122.5h-63q26 64 53 123t57 117l224 439h410l-541 -955v-535h-349zM964 1605q-76 0 -126.5 48t-50.5 120q0 73 50.5 120.5t126.5 47.5t126 -47.5t50 -120.5q0 -72 -50 -120t-126 -48zM509 1605q-77 0 -127 48
t-50 120q0 73 50 120.5t127 47.5q76 0 126 -47.5t50 -120.5q0 -72 -50 -120t-126 -48z" />
    <glyph glyph-name="Zacute" unicode="&#x179;" horiz-adv-x="1333" 
d="M65 0v258l603 746q62 77 130.5 153t139.5 153l37 -119q-99 -2 -199 -2.5t-201 -0.5h-496v302h1184v-258l-593 -741q-63 -78 -132 -156t-141 -156l-37 120q101 2 202.5 2.5t202.5 0.5h504v-302h-1204zM535 1620l176 319h323l-264 -319h-235z" />
    <glyph glyph-name="zacute" unicode="&#x17a;" horiz-adv-x="1126" 
d="M101 0v220l506 578v3h-502v269h909v-236l-489 -563v-4h499v-267h-923zM429 1200l176 319h323l-264 -319h-235z" />
    <glyph glyph-name="Zdotaccent" unicode="&#x17b;" horiz-adv-x="1333" 
d="M65 0v258l603 746q62 77 130.5 153t139.5 153l37 -119q-99 -2 -199 -2.5t-201 -0.5h-496v302h1184v-258l-593 -741q-63 -78 -132 -156t-141 -156l-37 120q101 2 202.5 2.5t202.5 0.5h504v-302h-1204zM667 1599q-81 0 -134.5 49t-53.5 124q0 74 53.5 123t133.5 49
q82 0 135 -49t53 -124q0 -74 -53 -123t-134 -49z" />
    <glyph glyph-name="zdotaccent" unicode="&#x17c;" horiz-adv-x="1126" 
d="M101 0v220l506 578v3h-502v269h909v-236l-489 -563v-4h499v-267h-923zM561 1179q-81 0 -134.5 49t-53.5 124q0 74 53.5 123t133.5 49q82 0 135 -49t53 -124q0 -74 -53 -123t-134 -49z" />
    <glyph glyph-name="Zcaron" unicode="&#x17d;" horiz-adv-x="1333" 
d="M65 0v258l603 746q62 77 130.5 153t139.5 153l37 -119q-99 -2 -199 -2.5t-201 -0.5h-496v302h1184v-258l-593 -741q-63 -78 -132 -156t-141 -156l-37 120q101 2 202.5 2.5t202.5 0.5h504v-302h-1204zM536 1939l129 -165l132 165h266v-2l-267 -311h-263l-262 311v2h265z
" />
    <glyph glyph-name="zcaron" unicode="&#x17e;" horiz-adv-x="1126" 
d="M101 0v220l506 578v3h-502v269h909v-236l-489 -563v-4h499v-267h-923zM430 1519l129 -165l132 165h266v-2l-267 -311h-263l-262 311v2h265z" />
    <glyph glyph-name="longs" unicode="&#x17f;" horiz-adv-x="674" 
d="M100 0v1174q0 112 42 185.5t124.5 110t205.5 36.5q63 0 120 -3t82 -4l-13 -264q-15 1 -47 2t-57 1q-61 0 -86.5 -26t-25.5 -84v-1128h-345z" />
    <glyph glyph-name="bbar" unicode="&#x180;" horiz-adv-x="1263" 
d="M752 -22q-73 0 -133 22.5t-104 65t-70 101.5h-3v-167h-342v1490h346v-574h2q32 56 75 94.5t101 59.5t131 21q130 0 232 -68t160.5 -192.5t58.5 -294.5q0 -172 -57 -297t-159.5 -193t-237.5 -68zM650 253q65 0 110.5 34.5t70.5 98t25 150.5t-25 150t-70.5 97t-110.5 34
t-114 -34.5t-76 -97.5t-27 -149t27 -149.5t76 -98.5t114 -35zM-35 1172v198h795v-198h-795z" />
    <glyph glyph-name="uni0181" unicode="&#x181;" horiz-adv-x="1765" 
d="M30 1030v121q0 157 86.5 248t255.5 91h161v-295h-75q-46 0 -69 -21t-23 -63v-81h-336zM533 0v1490h619q166 0 279.5 -48t172 -133t58.5 -197q0 -85 -35 -153t-97 -112.5t-146 -62.5v-5q93 -6 168 -51t119 -123.5t44 -184.5q0 -122 -60 -217t-176 -149t-282 -54h-664z
M884 278h249q102 0 158.5 45.5t56.5 125.5q0 55 -25.5 95.5t-73 62.5t-113.5 22h-252v-351zM884 883h228q58 0 101 20t66 57.5t23 87.5q0 76 -50.5 120.5t-137.5 44.5h-230v-330z" />
    <glyph glyph-name="uni0182" unicode="&#x182;" horiz-adv-x="1309" 
d="M101 0v1490h1013v-287h-662v-243h205q182 0 315 -59t206.5 -165t73.5 -250t-73 -253.5t-206.5 -171t-315.5 -61.5h-556zM452 280h205q80 0 134.5 28t83.5 75.5t29 105.5q0 84 -63.5 140.5t-183.5 56.5h-205v-406z" />
    <glyph glyph-name="uni0183" unicode="&#x183;" horiz-adv-x="1263" 
d="M276 1224l-176 266h880v-266h-704zM752 -22q-73 0 -133 22.5t-104 65t-70 101.5h-3v-167h-342v1490h346v-574h2q32 56 75 94.5t101 59.5t131 21q130 0 232 -68t160.5 -192.5t58.5 -294.5q0 -172 -57 -297t-159.5 -193t-237.5 -68zM650 253q65 0 110.5 34.5t70.5 98
t25 150.5t-25 150t-70.5 97t-110.5 34t-114 -34.5t-76 -97.5t-27 -149t27 -149.5t76 -98.5t114 -35z" />
    <glyph glyph-name="uni0184" unicode="&#x184;" horiz-adv-x="1694" 
d="M271 907l-257 146l249 437h345zM687 987h378q177 0 305 -59.5t197.5 -169.5t69.5 -261q0 -153 -66 -264.5t-188 -172t-289 -60.5h-630v1490h358v-1198h228q110 0 174 56t64 152q0 63 -29 108.5t-82 69.5t-127 24h-363v285z" />
    <glyph glyph-name="uni0185" unicode="&#x185;" horiz-adv-x="1444" 
d="M246 567l-238 134l207 369h311zM612 740h321q143 0 244.5 -45t155.5 -127.5t54 -197.5t-54 -198t-155.5 -127.5t-244.5 -44.5h-532v1070h346v-803h177q62 0 97 28t35 77q0 50 -35 77.5t-97 27.5h-312v263z" />
    <glyph glyph-name="uni0186" unicode="&#x186;" horiz-adv-x="1498" 
d="M726 1513q204 0 365 -90.5t254.5 -262.5t93.5 -414q0 -244 -93.5 -415.5t-255 -262.5t-364.5 -91q-136 0 -251.5 39.5t-203.5 113t-143.5 177t-71.5 232.5h361q11 -59 37 -105t64.5 -78t89.5 -49t111 -17q113 0 193 54.5t122.5 157t42.5 244.5q0 143 -42 244.5
t-122 155.5t-194 54q-60 0 -110 -16.5t-89 -49t-65.5 -78t-37.5 -104.5h-362q16 122 69.5 224.5t141.5 178t204 117t256 41.5z" />
    <glyph glyph-name="uni0187" unicode="&#x187;" horiz-adv-x="1498" 
d="M1099 951v383q0 173 92.5 260t286.5 87q57 0 105 -1.5t80 -3.5v-267q-20 0 -53 0.5t-69 0.5q-51 0 -75 -21.5t-24 -67.5v-370h-343zM772 -23q-203 0 -364.5 90.5t-255 262.5t-93.5 414q0 244 93.5 416t255 262.5t364.5 90.5q136 0 251 -39.5t203 -113t144 -177t72 -232.5
h-362q-10 59 -36 105t-65 78t-89.5 49t-110.5 17q-114 0 -194 -54.5t-122 -156.5t-42 -245t42 -244.5t122 -155.5t193 -54q61 0 111 16.5t89 49t65 78t38 104.5h361q-15 -122 -69 -224.5t-141.5 -178t-203.5 -117t-256 -41.5z" />
    <glyph glyph-name="uni0188" unicode="&#x188;" horiz-adv-x="1362" 
d="M830 660l-20 271q-14 173 64.5 257.5t273.5 84.5q54 0 99 -0.5t75 -1.5l-2 -270q-18 1 -50.5 1.5t-67.5 0.5q-50 0 -71.5 -22t-18.5 -69l11 -250zM606 -23q-166 0 -289.5 70t-191.5 195.5t-68 291.5t68 291.5t191.5 196t289.5 70.5q110 0 201.5 -31.5t159.5 -88.5
t108.5 -135.5t47.5 -174.5l-329 -12q-6 39 -20.5 70.5t-37.5 53.5t-54.5 34t-69.5 12q-65 0 -111 -34.5t-70 -98.5t-24 -153q0 -88 24 -152.5t70.5 -99t110.5 -34.5q38 0 69.5 12t54.5 34.5t37.5 55t19.5 72.5l330 -11q-5 -97 -44.5 -176t-108 -137t-161 -89.5t-203.5 -31.5
z" />
    <glyph glyph-name="Dbar1" unicode="&#x189;" horiz-adv-x="1560" 
d="M759 0h-396v300h379q135 0 223.5 48.5t132 147.5t43.5 249t-44 249t-133.5 147.5t-225.5 48.5h-381v300h403q226 0 393 -91t257.5 -258t90.5 -396t-90 -396t-256.5 -258t-395.5 -91zM566 1490v-1490h-358v1490h358zM21 629v232h832v-232h-832z" />
    <glyph glyph-name="uni018A" unicode="&#x18a;" horiz-adv-x="1885" 
d="M30 1030v121q0 157 86.5 248t255.5 91h161v-295h-75q-46 0 -69 -21t-23 -63v-81h-336zM1084 0h-396v300h379q135 0 223.5 48.5t132 147.5t43.5 249t-44 249t-133.5 147.5t-225.5 48.5h-381v300h403q226 0 393 -91t257.5 -258t90.5 -396t-90 -396t-256.5 -258t-395.5 -91z
M891 1490v-1490h-358v1490h358z" />
    <glyph glyph-name="uni018B" unicode="&#x18b;" horiz-adv-x="1365" 
d="M1259 0h-556q-181 0 -314.5 62t-206.5 172t-73 252t73 249t206.5 166.5t314.5 59.5h209v248h-665v283h1012v-1492zM912 277v408h-209q-122 1 -185.5 -55.5t-63.5 -140.5q0 -58 28.5 -106t84 -77t136.5 -29h209z" />
    <glyph glyph-name="uni018C" unicode="&#x18c;" horiz-adv-x="1263" 
d="M987 1224h-704v266h880zM511 -22q-134 0 -237 68t-160 193t-57 297q0 170 58.5 294.5t161 192.5t231.5 68q74 0 131.5 -21t101 -59.5t74.5 -94.5h2v574h346v-1490h-342v167h-3q-26 -59 -70 -101.5t-103.5 -65t-133.5 -22.5zM613 253q65 0 114 35t76 98.5t27 149.5
t-27 149t-76 97.5t-114 34.5q-64 0 -110.5 -34t-71 -97t-24.5 -150t25 -150.5t71 -98t110 -34.5z" />
    <glyph glyph-name="deltaturn" unicode="&#x18d;" horiz-adv-x="1373" 
d="M1100 -376h-845v265h415q-17 13 -42.5 28t-60.5 37.5t-78 55.5q-149 116 -244.5 248t-95.5 292v20q1 168 63 294.5t182 197t293 70.5t293.5 -65t183.5 -181t63 -272v-20q0 -141 -54.5 -249.5t-144.5 -176t-198 -86.5q-4 0 -15.5 -0.5t-22.5 -0.5q32 -25 75.5 -64
t88.5 -81.5t83.5 -80.5t60.5 -62v-169zM892 550v20q1 78 -14.5 145.5t-60 108.5t-130.5 41q-79 0 -124 -38t-62.5 -105t-17.5 -152v-20q0 -111 46 -186.5t109 -109.5q12 -4 23.5 -5.5t24.5 -1.5q77 0 122.5 40.5t65 109.5t18.5 153z" />
    <glyph glyph-name="Eturn" unicode="&#x18e;" horiz-adv-x="1264" 
d="M1163 1490v-1490h-1092v302h734v292h-678v293h678v301h-734v302h1092z" />
    <glyph glyph-name="uni018F" unicode="&#x18f;" horiz-adv-x="1513" 
d="M749 -23q-148 0 -272 45t-215 128.5t-141 200t-50 260.5v200h1107v-263h-835l77 8q0 -80 40.5 -140t114 -93t169.5 -33q117 0 194 52.5t115.5 154t38.5 248.5q0 143 -38.5 245t-116.5 156t-195 54q-61 0 -110.5 -14.5t-87.5 -42t-62.5 -67t-35.5 -88.5h-364
q13 118 69 214t145 166t204 107.5t246 37.5q202 0 362 -90.5t253 -263t93 -415.5q0 -233 -86.5 -405.5t-245 -267t-373.5 -94.5z" />
    <glyph glyph-name="Epsilon1" unicode="&#x190;" horiz-adv-x="1300" 
d="M649 -23q-174 0 -307 57.5t-208 158t-75 228.5q0 89 39 164.5t114.5 125.5t185.5 63v4q-127 21 -209 105t-82 213q0 122 69 215.5t191 147.5t280 54q170 0 295 -61t193.5 -167.5t68.5 -241.5h-337q-1 61 -29 106.5t-77 70.5t-113 25q-61 0 -108 -23.5t-73.5 -65
t-26.5 -97.5q0 -53 29 -92.5t82 -61t126 -21.5h139v-252h-139q-78 0 -136.5 -23.5t-91 -65.5t-32.5 -98q0 -57 29.5 -100t82.5 -67t121 -24q74 0 127.5 28t82.5 80.5t29 124.5h344q-1 -139 -66.5 -255t-195.5 -185.5t-322 -69.5z" />
    <glyph glyph-name="uni0191" unicode="&#x191;" horiz-adv-x="1211" 
d="M-117 -418v277q20 -1 53 -1.5t69 -0.5q50 0 73 21t23 65v176h358v-195q0 -172 -97.5 -259t-291.5 -87q-58 0 -106.5 1t-80.5 3zM101 0v1490h1061v-302h-703v-331h654v-292h-654v-565h-358z" />
    <glyph glyph-name="florin" unicode="&#x192;" horiz-adv-x="976" 
d="M850 1082v-239h-221v-856q-1 -198 -105 -301.5t-291 -103.5q-40 0 -77.5 2.5t-81.5 11.5l14 263q18 -5 46 -8.5t49 -3.5q71 0 91.5 38t20.5 102v856h-165v239h165v86q0 190 115.5 289t317.5 99q49 0 91.5 -5.5t82.5 -14.5l-26 -253q-21 4 -44 6t-62 2q-65 0 -103 -30.5
t-38 -92.5v-86h221z" />
    <glyph glyph-name="uni0193" unicode="&#x193;" horiz-adv-x="1518" 
d="M1093 988v343q0 173 92 260t286 87q58 0 106 -1.5t80 -3.5v-267q-20 1 -53 1.5t-69 0.5q-52 0 -76 -22t-24 -68v-330h-342zM777 -23q-215 0 -376.5 94.5t-251.5 267t-90 405.5q0 243 94 415.5t256 263t363 90.5q131 0 246 -37.5t204 -107.5t145 -166t68 -214h-363
q-11 49 -35 88.5t-61 67t-85 42t-108 14.5q-114 0 -195 -54t-124 -155.5t-43 -245.5t43 -245.5t125 -155.5t198 -54q97 0 166.5 33t107 93t37.5 140l77 -8h-375v263h647v-200q0 -192 -85 -334.5t-236 -221t-349 -78.5z" />
    <glyph glyph-name="Gamma1" unicode="&#x194;" horiz-adv-x="1558" 
d="M64 1490h402l413 -900q94 -199 158.5 -346.5t97 -248t32.5 -158.5q0 -80 -48.5 -143.5t-135.5 -99.5t-205 -36q-178 0 -288 76.5t-110 211.5q0 27 7 59t25.5 82.5t52 128t86.5 193.5t130 283l408 898h404l-675 -1335q-28 -56 -48.5 -109t-31.5 -99.5t-11 -83.5
q0 -34 13 -52.5t38 -18.5q26 0 39.5 18.5t13.5 54.5q0 37 -10.5 83.5t-30.5 99.5t-48 107z" />
    <glyph glyph-name="uni0195" unicode="&#x195;" horiz-adv-x="2000" 
d="M1295 -22q-154 0 -259 55.5t-159 157.5t-54 242v176q0 94 -49.5 146.5t-135.5 52.5q-56 0 -99.5 -24t-68 -69.5t-24.5 -112.5v-602h-346v1490h343v-616h5q37 99 121.5 158t207.5 59q116 0 204 -52t138 -145.5t50 -219.5v-241q0 -60 19 -97t50.5 -54t68.5 -17
q85 0 139.5 83.5t81.5 248t27 404.5v69h345v-69q0 -345 -61.5 -572.5t-195 -339t-348.5 -111.5z" />
    <glyph glyph-name="Iota" unicode="&#x196;" horiz-adv-x="609" 
d="M469 -1q-193 0 -281 72t-88 234v1185h346v-1150q0 -42 19.5 -61.5t61.5 -19.5q13 0 25 0.5t21 0.5l12 -255q-25 -2 -54 -4t-62 -2z" />
    <glyph glyph-name="uni0197" unicode="&#x197;" horiz-adv-x="737" 
d="M548 1490v-1490h-358v1490h358zM16 714v138h704v-138h-704z" />
    <glyph glyph-name="uni0198" unicode="&#x198;" horiz-adv-x="1493" 
d="M101 0v1490h351v-615h19l462 481q82 84 173 122t189.5 28.5t201.5 -68.5l-109 -247q-65 33 -107.5 15t-91.5 -68l-331 -340l612 -798h-421l-416 549l-181 -192v-357h-351z" />
    <glyph glyph-name="uni0199" unicode="&#x199;" horiz-adv-x="1174" 
d="M100 840v306q0 174 94 260.5t287 86.5q58 0 106 -1t80 -3v-268q-20 1 -53 1.5t-69 0.5q-51 0 -75 -21.5t-24 -68.5v-293h-346zM411 279v409h41l321 382h397l-465 -551h-90zM100 0v1070h346v-1070h-346zM788 0l-295 443l226 242l468 -685h-399z" />
    <glyph glyph-name="uni019A" unicode="&#x19a;" horiz-adv-x="546" 
d="M446 1490v-1490h-346v1490h346zM-126 669v198h795v-198h-795z" />
    <glyph glyph-name="lambdabar" unicode="&#x19b;" horiz-adv-x="1281" 
d="M253 1003l-30 134l639 203l34 -130zM8 0l412 1069l-20 56q-13 41 -31 64t-45 31t-68 5l-112 -2l-18 265q53 3 113.5 5.5t118.5 2.5q92 0 161 -28.5t119.5 -89.5t87.5 -161l318 -850q16 -41 32 -64.5t40 -32.5t61 -7l63 2l17 -263q-39 -3 -82.5 -5.5t-86.5 -2.5
q-91 0 -157 28t-112.5 89t-79.5 162l-77 227q-33 102 -60.5 205.5t-53.5 210.5h92q-27 -107 -53.5 -210.5t-57.5 -205.5l-159 -500h-362z" />
    <glyph glyph-name="mcapturn" unicode="&#x19c;" horiz-adv-x="1950" 
d="M1474 268v1222h335v-1490h-299zM1514 504l98 2q0 -151 -49.5 -270t-145 -187.5t-234.5 -68.5q-113 0 -197.5 43t-130.5 140t-46 258v1069h331v-1069q0 -58 17.5 -96.5t51 -57.5t80.5 -19q83 0 133 33.5t71.5 92t20.5 130.5zM850 504l103 2q0 -154 -49.5 -273t-146 -186
t-239.5 -67q-126 0 -209 43.5t-124 140.5t-41 257v1069h332v-1069q0 -58 17.5 -96.5t50.5 -57.5t79 -19q64 0 107.5 19.5t69.5 54t38 81.5t12 101z" />
    <glyph glyph-name="Nhook" unicode="&#x19d;" horiz-adv-x="1514" 
d="M-117 -418v277q20 -1 53 -1.5t69 -0.5q51 0 73.5 21t22.5 65v176h358v-195q0 -172 -97.5 -259t-291.5 -87q-57 0 -106 1t-81 3zM101 0v1490h375l422 -676q27 -44 62.5 -108t74.5 -138.5t74 -149.5l-40 -76q-4 76 -8 173t-6 187t-2 145v643h360v-1490h-376l-387 620
q-33 54 -75.5 127.5t-91 164.5t-102.5 194l62 23q7 -108 11 -207t5.5 -177.5t1.5 -124.5v-620h-360z" />
    <glyph glyph-name="uni019E" unicode="&#x19e;" horiz-adv-x="1247" 
d="M446 588v-588h-346v1070h337l2 -283h-43q48 138 139.5 221t242.5 83q116 0 198 -50t126.5 -143.5t44.5 -223.5v-1092h-346v1022q0 94 -45.5 144t-128.5 50q-55 0 -96 -23t-63 -69.5t-22 -117.5z" />
    <glyph glyph-name="Obar" unicode="&#x19f;" horiz-adv-x="1541" 
d="M1261 853v-216h-940v216h940zM771 -23q-202 0 -363.5 91t-255 262.5t-93.5 413.5q0 244 93.5 416t255 262.5t363.5 90.5q201 0 362 -90.5t255.5 -262.5t94.5 -416q0 -243 -94.5 -414.5t-255.5 -262t-362 -90.5zM771 290q107 0 185.5 53t121.5 155t43 246q0 145 -43 247.5
t-121.5 155.5t-185.5 53t-185.5 -53t-121.5 -155.5t-43 -247.5q0 -144 43 -246t121.5 -155t185.5 -53z" />
    <glyph glyph-name="Ohorn" unicode="&#x1a0;" horiz-adv-x="1548" 
d="M774 1301v212q47 0 84.5 -3.5t76.5 -8t90.5 -8t126.5 -3.5q28 0 28 29v204h306v-238q0 -107 -67.5 -155.5t-169.5 -48.5q-55 0 -107.5 3t-108 7t-119.5 7t-140 3zM771 -23q-202 0 -363.5 91t-255 262.5t-93.5 413.5q0 244 93.5 416t255 262.5t363.5 90.5q201 0 362 -90.5
t255.5 -262.5t94.5 -416q0 -243 -94.5 -414.5t-255.5 -262t-362 -90.5zM771 290q107 0 185.5 53t121.5 155t43 246q0 145 -43 247.5t-121.5 155.5t-185.5 53t-185.5 -53t-121.5 -155.5t-43 -247.5q0 -144 43 -246t121.5 -155t185.5 -53z" />
    <glyph glyph-name="ohorn" unicode="&#x1a1;" horiz-adv-x="1227" 
d="M613 903v189q43 0 80 -3t70 -7t66.5 -7t68.5 -3q47 0 47 45v195h267v-187q0 -104 -68.5 -163t-189.5 -59h-170.5h-170.5zM614 -23q-168 0 -293.5 69t-194.5 194t-69 294q0 168 69 293t194.5 195t293.5 70t293 -70t194 -195t69 -293q0 -169 -69 -294t-194 -194t-293 -69z
M614 249q61 0 107.5 34t72.5 98t26 153q0 91 -26 154t-72.5 97t-107.5 34q-62 0 -109 -33.5t-72.5 -97t-25.5 -154.5q0 -90 25.5 -153.5t72.5 -97.5t109 -34z" />
    <glyph glyph-name="OI" unicode="&#x1a2;" horiz-adv-x="1922" 
d="M1331 917v-734q-41 -48 -122.5 -94.5t-195 -77.5t-252.5 -31q-161 0 -286.5 47.5t-213 139t-133.5 223t-46 297.5v94l353 2v-96q1 -130 33 -227.5t106 -150.5t200 -53q76 0 133.5 18.5t88.5 44.5v598h335zM1331 1307v-722l-335 -5v592q-37 32 -96.5 46t-122.5 14
q-132 0 -206.5 -50t-105 -145.5t-30.5 -233.5v-107l-353 2v105q0 168 46.5 299t134 222t214 138.5t288.5 47.5q139 0 252 -31t193.5 -77.5t120.5 -94.5zM1821 1490v-1908h-331v1500l-344 -161v371l425 198h250z" />
    <glyph glyph-name="uni01A3" unicode="&#x1a3;" horiz-adv-x="1554" 
d="M586 248q45 0 77.5 11.5t53.5 34.5v358h334v-431q-37 -65 -95 -120t-146 -88t-219 -33q-173 0 -289.5 71.5t-174 196t-57.5 281.5v24q0 171 57.5 301t174 204t292.5 74q118 0 210 -44t155 -107t92 -120v-281l-334 28v196q-22 29 -54.5 45t-82.5 16q-78 0 -116 -42
t-50.5 -113t-12.5 -157v-24q0 -73 13.5 -137t53 -104t118.5 -40zM1486 1118v-1536h-336v1169l-244 -85v301l356 151h224z" />
    <glyph glyph-name="uni01A4" unicode="&#x1a4;" horiz-adv-x="1747" 
d="M33 1030v121q0 157 86 248t255 91h161v-295h-75q-46 0 -69 -21t-23 -63v-81h-335zM533 0v1490h609q172 0 297 -62.5t193 -176t68 -267.5t-68.5 -267.5t-194.5 -175.5t-299 -62h-398v294h366q75 0 128.5 26t82 73.5t28.5 111.5q0 65 -28.5 112t-82 72.5t-128.5 25.5h-215
v-1194h-358z" />
    <glyph glyph-name="uni01A5" unicode="&#x1a5;" horiz-adv-x="1263" 
d="M100 840v306q0 174 94 260.5t287 86.5q58 0 106 -1t80 -3v-268q-20 1 -53 1.5t-69 0.5q-51 0 -75 -21.5t-24 -68.5v-293h-346zM100 -418v1488h342v-150h6q29 53 73 91t102.5 59t131.5 21q130 0 232 -68t160.5 -192.5t58.5 -294.5q0 -172 -57 -297t-159.5 -193t-237.5 -68
q-73 0 -131.5 22.5t-101.5 63.5t-69 98h-4v-580h-346zM650 253q65 0 110.5 34.5t70.5 98t25 150.5t-25 150t-70.5 97t-110.5 34t-114 -34.5t-76 -97.5t-27 -149t27 -149.5t76 -98.5t114 -35z" />
    <glyph glyph-name="YR" unicode="&#x1a6;" horiz-adv-x="1554" 
d="M82 1388v204h346v-204h-346zM82 1490h586q173 0 300.5 -51t196.5 -148.5t69 -241.5q0 -127 -40 -211.5t-112.5 -138t-168.5 -89.5l-115 -67h-494l-1 277h365q72 0 121 23t74 66.5t25 102.5q0 63 -25 107t-74 68t-121 24h-237v-1211h-349v1490zM1100 -348l-523 994h368
l527 -979v-15h-372z" />
    <glyph glyph-name="uni01A7" unicode="&#x1a7;" horiz-adv-x="1365" 
d="M675 -23q-190 0 -326 56t-208.5 161.5t-72.5 253.5q0 87 28.5 156t86 122t146 91t208.5 62l131 27q81 17 133.5 39t77.5 51.5t25 72.5q0 45 -28.5 80t-79 54.5t-119.5 19.5q-107 0 -171.5 -51.5t-72.5 -141.5h-334q4 150 75.5 258t200 166.5t306.5 58.5q173 0 305 -58
t205.5 -162t73.5 -243q0 -164 -110.5 -269.5t-323.5 -149.5l-154 -33q-87 -18 -143 -41.5t-83 -54.5t-27 -74q0 -48 31 -84.5t87 -56.5t131 -20q86 0 147.5 26.5t96.5 77t37 121.5h342q0 -166 -74 -281t-212.5 -174.5t-334.5 -59.5z" />
    <glyph glyph-name="uni01A8" unicode="&#x1a8;" horiz-adv-x="1118" 
d="M76 728q7 168 137.5 264.5t352.5 96.5q148 0 255 -42t164.5 -119.5t57.5 -183.5q0 -126 -81.5 -205.5t-239.5 -108.5l-192 -35q-65 -12 -97.5 -33.5t-32.5 -56.5q0 -41 41 -65.5t111 -24.5q77 0 122 33t54 92l340 -2q-10 -111 -77 -192.5t-180 -125.5t-263 -44
q-147 0 -260 45.5t-176 128t-63 192.5q0 117 78.5 188.5t242.5 101.5l213 39q58 11 87.5 34t29.5 57q0 39 -39 64t-106 25q-69 0 -113.5 -35t-48.5 -90z" />
    <glyph glyph-name="uni01A9" unicode="&#x1a9;" horiz-adv-x="1354" 
d="M67 0v256l366 369q38 38 87 83t99 89t90 78v-225q-40 33 -90 75.5t-98.5 87.5t-87.5 82l-332 330v265h1179v-302h-464q-93 0 -188 1t-187 3l-6 110q48 -41 97 -83t95.5 -82.5t84.5 -79.5l232 -233v-125l-225 -228q-45 -45 -96.5 -93t-102 -93t-92.5 -84l5 99
q94 1 190.5 1.5t192.5 0.5h481v-302h-1230z" />
    <glyph glyph-name="eshlooprev" unicode="&#x1aa;" horiz-adv-x="1368" 
d="M668 953l335 175v-1139q0 -78 37.5 -118t105.5 -40q43 0 97 9v-262q-38 -8 -77.5 -11t-83.5 -3q-193 0 -303.5 110t-110.5 315v964zM124 1128q0 117 58.5 214.5t158 155.5t221.5 58q120 0 220.5 -58t160.5 -155.5t60 -214.5t-60 -215t-160 -156.5t-221 -58.5
q-120 0 -219 58.5t-158.5 156t-60.5 215.5zM565 980q59 0 102.5 38t41.5 113q0 74 -43 110.5t-101 36.5q-66 0 -107.5 -37.5t-41.5 -109.5q-1 -75 41 -113t108 -38z" />
    <glyph glyph-name="uni01AB" unicode="&#x1ab;" horiz-adv-x="799" 
d="M194 -418v267q20 -1 54 -1.5t69 -0.5q58 0 85 25t24 73l-3 81h335l3 -89q8 -175 -86.5 -267.5t-294.5 -92.5q-58 0 -106 1t-80 4zM751 1070v-265h-732v265h732zM192 1353h346v-1001q0 -49 20.5 -68.5t75.5 -19.5q24 0 61 0.5t53 1.5l10 -263q-34 -4 -89 -5.5t-111 -1.5
q-187 0 -276.5 74.5t-89.5 229.5v1053z" />
    <glyph glyph-name="uni01AC" unicode="&#x1ac;" horiz-adv-x="1496" 
d="M105 1030v121q0 157 86.5 248t255.5 91h161v-295h-75q-46 0 -69 -21t-23 -63v-81h-336zM608 1188v302h841v-302h-453v-1188h-358v1188h-30z" />
    <glyph glyph-name="uni01AD" unicode="&#x1ad;" horiz-adv-x="786" 
d="M177 1070h345v-699q0 -58 24.5 -82.5t82.5 -24.5q25 0 54 1t46 1l11 -263q-34 -3 -87 -5t-109 -2q-185 0 -276 79.5t-91 240.5v754zM736 1070v-264h-717v264h717zM177 840v306q0 174 93.5 260.5t287.5 86.5q58 0 106 -1t79 -3v-268q-19 1 -52.5 1.5t-68.5 0.5
q-52 0 -76 -21.5t-24 -68.5v-293h-345z" />
    <glyph glyph-name="Trthook" unicode="&#x1ae;" horiz-adv-x="1336" 
d="M868 -422q-194 0 -286.5 87t-92.5 259v269h358v-250q0 -46 23 -67.5t74 -21.5q35 0 68.5 0.5t52.5 1.5v-274q-31 -2 -85 -3t-112 -1zM48 1188v302h1240v-302h-441v-1188h-358v1188h-441z" />
    <glyph glyph-name="Uhorn" unicode="&#x1af;" horiz-adv-x="1453" 
d="M1003 1279v211h180q29 0 29 29v204h305v-238q0 -107 -67 -156.5t-170 -49.5h-277zM727 -23q-190 0 -331 68.5t-219 192t-78 287.5v965h351v-935q0 -79 35 -140t97 -96t145 -35t145 35t96.5 95.5t34.5 140.5v935h351v-965q0 -164 -78 -287.5t-219 -192t-330 -68.5z" />
    <glyph glyph-name="uhorn" unicode="&#x1b0;" horiz-adv-x="1369" 
d="M951 863v207h79q32 0 32 32v210h267v-242q0 -108 -67 -157.5t-170 -49.5h-141zM469 -21q-115 0 -198 50t-127 143.5t-44 223.5v674h346v-604q0 -93 45.5 -143.5t128.5 -50.5q55 0 95.5 23t63 69.5t22.5 117.5v588h346v-1070h-338l-1 283h43q-48 -138 -139.5 -221
t-242.5 -83z" />
    <glyph glyph-name="Upsilon2" unicode="&#x1b1;" horiz-adv-x="1574" 
d="M69 675q0 180 72.5 309t196.5 207v12h-269v287h607v-360q-74 -29 -130.5 -91.5t-88 -147.5t-31.5 -185q0 -120 46 -214t127.5 -148t186.5 -54q106 0 187.5 54t128 148t46.5 214q0 100 -32.5 185t-88.5 147.5t-130 91.5v360h607v-287h-270v-12q125 -78 197.5 -207
t72.5 -309q0 -203 -92 -360t-254 -246t-372 -89q-157 0 -288 51t-227 144t-149 220.5t-53 279.5z" />
    <glyph glyph-name="Vcursive" unicode="&#x1b2;" horiz-adv-x="1359" 
d="M681 -20q-174 0 -307 61t-208.5 179t-75.5 289v981h346v-981q0 -121 59 -187t186 -66t183.5 66t56.5 187v573q-1 82 -28.5 112.5t-101.5 30.5q-21 0 -45 -1.5t-51 -5.5v274q41 9 77.5 13.5t77.5 4.5q200 0 310.5 -110.5t110.5 -317.5v-573q1 -170 -73.5 -288
t-207.5 -179.5t-309 -61.5z" />
    <glyph glyph-name="uni01B3" unicode="&#x1b3;" horiz-adv-x="1632" 
d="M783 829v34h36v-34h-36zM38 1490h379l384 -641l269 446q67 110 158.5 160t193.5 51t199 -34l-74 -262q-80 24 -124 4t-88 -90l-360 -559v-565h-348v565z" />
    <glyph glyph-name="uni01B4" unicode="&#x1b4;" horiz-adv-x="1463" 
d="M825 1070l27 77q36 109 75.5 186.5t110 118.5t199.5 41q58 0 108.5 -1t82.5 -3v-267q-19 0 -52.5 0.5t-68.5 0.5q-34 0 -52 -10.5t-28.5 -31.5t-21.5 -52l-23 -59h-357zM125 -412l17 264l124 -3q42 -3 69 6.5t43 33.5t25 64l14 48l-409 1069h362l159 -500
q31 -102 57.5 -205.5t53.5 -210.5h-92q26 107 53.5 211t60.5 205l163 500h358l-459 -1212q-35 -94 -84.5 -156t-119 -92t-166.5 -30q-58 0 -117.5 2t-111.5 6z" />
    <glyph glyph-name="Zbar" unicode="&#x1b5;" horiz-adv-x="1333" 
d="M65 0v258l603 746q62 77 130.5 153t139.5 153l37 -119q-99 -2 -199 -2.5t-201 -0.5h-496v302h1184v-258l-593 -741q-63 -78 -132 -156t-141 -156l-37 120q101 2 202.5 2.5t202.5 0.5h504v-302h-1204zM209 629v232h914v-232h-914z" />
    <glyph glyph-name="zbar" unicode="&#x1b6;" horiz-adv-x="1126" 
d="M101 0v220l506 578v3h-502v269h909v-236l-489 -563v-4h499v-267h-923zM215 471v138h704v-138h-704z" />
    <glyph glyph-name="uni01B7" unicode="&#x1b7;" horiz-adv-x="1376" 
d="M48 119h353q4 -79 41 -139t98.5 -94t137.5 -34q89 0 152.5 46t96.5 125.5t33 181.5q0 116 -41.5 198.5t-113.5 127.5t-165 45h-175v249l393 361v12h-729v292h1159v-254l-473 -429v-15q154 -13 269 -90.5t178.5 -203t63.5 -286.5q0 -143 -47.5 -262.5t-133.5 -207
t-204 -136t-260 -48.5q-179 0 -320.5 72t-225 199t-87.5 290z" />
    <glyph glyph-name="uni01B8" unicode="&#x1b8;" horiz-adv-x="1377" 
d="M1330 119q-5 -163 -88.5 -290t-225.5 -199t-322 -72q-140 0 -258 48.5t-204.5 136t-134 207t-47.5 262.5q0 161 64 286.5t179.5 203t268.5 90.5v14l-474 430v254h1159v-292h-729v-12l393 -361v-249h-174q-93 1 -165.5 -44.5t-113.5 -128t-41 -198.5q0 -102 33.5 -181.5
t96 -125.5t151.5 -46q77 0 138 33.5t98.5 94t40.5 139.5h355z" />
    <glyph glyph-name="uni01B9" unicode="&#x1b9;" horiz-adv-x="1300" 
d="M648 -443q-172 0 -305.5 57.5t-208.5 158t-75 230.5q0 92 44.5 182t144.5 155t266 83v3l-409 390v254h1050v-294h-623v-2l315 -314v-239h-171q-77 0 -135 -24t-90.5 -67.5t-32.5 -102.5q0 -57 29 -101t81.5 -68.5t121.5 -24.5q73 0 126.5 28t83 81t30.5 125h343
q-1 -140 -66.5 -255.5t-195 -185t-323.5 -69.5z" />
    <glyph glyph-name="uni01BA" unicode="&#x1ba;" horiz-adv-x="1168" 
d="M150 1070h912v-191l-547 -433h-194v190l236 167h-407v267zM418 -122q0 -47 44 -69.5t109 -22.5q46 0 88 12.5t70.5 42.5t30.5 84h313q-2 -90 -58.5 -174.5t-167 -138.5t-274.5 -54q-142 0 -250.5 43t-168.5 120.5t-60 182.5q0 86 38.5 144.5t100.5 96t136.5 59.5
t145.5 36q59 11 105 23t72.5 34t26.5 62q0 45 -36 66t-101 21h-152l2 224h150q144 0 246 -43t156.5 -116t54.5 -166q0 -85 -41 -143.5t-105.5 -97t-138 -62.5t-138.5 -40q-64 -14 -108.5 -31.5t-67 -39.5t-22.5 -53z" />
    <glyph glyph-name="uni01BB" unicode="&#x1bb;" horiz-adv-x="1268" 
d="M85 0v256l550 464q56 49 103.5 94.5t76.5 97t29 116.5q0 62 -27 108t-74.5 71.5t-112.5 25.5q-68 0 -119 -30.5t-79 -87.5t-28 -138h-331q0 165 68.5 285t193.5 185.5t296 65.5q161 0 285 -57t194 -161.5t70 -246.5q0 -102 -39.5 -187.5t-117 -169.5t-191.5 -181
l-259 -223v-4h615v-283h-1103zM272 528v232h914v-232h-914z" />
    <glyph glyph-name="uni01BC" unicode="&#x1bc;" horiz-adv-x="1326" 
d="M359 1490v-285h-311v285h311zM693 -22q-164 0 -290 59.5t-199.5 168.5t-80.5 255h337q2 -61 33 -109t84 -75.5t118 -27.5q70 0 122 31.5t81.5 87t29.5 128.5q0 74 -29.5 131t-81.5 89t-120 32q-83 0 -144 -36t-84 -98l-322 13l49 863h982v-285h-672l-26 -311h4
q48 54 123 83.5t166 29.5q100 0 189.5 -37.5t158 -105.5t107.5 -159.5t39 -198.5q0 -154 -71 -273.5t-200.5 -187t-302.5 -67.5z" />
    <glyph glyph-name="uni01BD" unicode="&#x1bd;" horiz-adv-x="1374" 
d="M572 458l-304 13l85 611h792v-257h-522l-27 -166q35 17 93.5 31.5t133.5 14.5q128 1 218 -41.5t138 -123t48 -192.5q0 -105 -51 -187.5t-160 -130.5t-284 -48q-101 0 -193 20t-164 62t-114 107t-42 156l333 13q6 -47 53.5 -67t125.5 -20q83 0 123 32t40 89
q0 53 -44.5 85.5t-124.5 32.5q-59 0 -97 -9.5t-56 -24.5zM469 1082v-257h-322v257h322z" />
    <glyph glyph-name="glottalstopbarinv" unicode="&#x1be;" horiz-adv-x="1168" 
d="M751 306q0 40 -27 66t-70.5 49.5t-92.5 53t-92.5 74t-71 113t-28.5 169.5v523h336v-528q1 -73 27.5 -117t68.5 -71.5t89 -51t89 -54.5t68.5 -82.5t26.5 -134.5q0 -96 -59.5 -171.5t-168 -119.5t-257.5 -44q-160 0 -270 56t-167 141.5t-57 170.5h313q4 -53 32.5 -83.5
t70.5 -43t86 -12.5q70 0 112.5 24.5t41.5 72.5zM892 1082v-239h-671v239h671z" />
    <glyph glyph-name="uni01BF" unicode="&#x1bf;" horiz-adv-x="1374" 
d="M506 910v-1326h-336v1534h315zM477 600l-137 -22q16 114 46 214.5t79 176.5t123 119.5t178 43.5q141 0 238.5 -68.5t148.5 -191.5t51 -286v-54q0 -160 -54 -278.5t-157.5 -204.5t-254.5 -147.5t-345 -105.5l-34 262q150 13 265 70t179.5 158.5t64.5 244.5v55
q0 76 -17 139t-58 101.5t-113 38.5q-77 0 -121.5 -29t-63.5 -88t-18 -148z" />
    <glyph glyph-name="pipe" unicode="&#x1c0;" horiz-adv-x="601" 
d="M394 1456v-1456h-187v1456h187z" />
    <glyph glyph-name="pipedbl" unicode="&#x1c1;" horiz-adv-x="796" 
d="M367 1456v-1456h-187v1456h187zM636 1456v-1456h-187v1456h187z" />
    <glyph glyph-name="pipedblbar" unicode="&#x1c2;" horiz-adv-x="546" 
d="M370 1456v-1456h-187v1456h187zM-126 1004v198h795v-198h-795zM-126 534v198h795v-198h-795z" />
    <glyph glyph-name="exclam1" unicode="&#x1c3;" horiz-adv-x="573" 
d="M133 458l-30 1032h368l-31 -1032h-307zM287 -19q-80 0 -135 54t-55 133t55 133t135 54t134.5 -54t54.5 -133t-54.5 -133t-134.5 -54z" />
    <glyph glyph-name="Dzcaron_" unicode="&#x1c5;" horiz-adv-x="2579" 
d="M652 0h-396v300h379q135 0 223.5 48.5t132 147.5t43.5 249t-44 249t-133.5 147.5t-225.5 48.5h-381v300h403q226 0 393 -91t257.5 -258t90.5 -396t-90 -396t-256.5 -258t-395.5 -91zM459 1490v-1490h-358v1490h358zM1554 0v220l506 578v3h-502v269h909v-236l-489 -563v-4
h499v-267h-923zM1883 1519l129 -165l132 165h266v-2l-267 -311h-263l-262 311v2h265z" />
    <glyph glyph-name="uni01C6" unicode="&#x1c6;" horiz-adv-x="2389" 
d="M511 -22q-134 0 -237 68t-160 193t-57 297q0 170 58.5 294.5t161 192.5t231.5 68q74 0 131.5 -21t101 -59.5t74.5 -94.5h2v574h346v-1490h-342v167h-3q-26 -59 -70 -101.5t-103.5 -65t-133.5 -22.5zM613 253q65 0 114 35t76 98.5t27 149.5t-27 149t-76 97.5t-114 34.5
q-64 0 -110.5 -34t-71 -97t-24.5 -150t25 -150.5t71 -98t110 -34.5zM1364 0v220l506 578v3h-502v269h909v-236l-489 -563v-4h499v-267h-923zM1693 1519l129 -165l132 165h266v-2l-267 -311h-263l-262 311v2h265z" />
    <glyph glyph-name="uni01C7" unicode="&#x1c7;" horiz-adv-x="2340" 
d="M101 0v1490h358v-1188h652v-302h-1010zM1721 -22q-241 0 -375.5 125t-134.5 358v104h339v-108q0 -90 44 -137t123 -47q78 0 122 47t44 137v1033h357v-1036q0 -229 -136.5 -352.5t-382.5 -123.5z" />
    <glyph glyph-name="uni01C8" unicode="&#x1c8;" horiz-adv-x="1705" 
d="M101 0v1490h358v-1188h652v-302h-1010zM1259 1070h346v-1131q0 -120 -46 -199t-135 -118.5t-220 -39.5h-120v267h64q60 0 85.5 28t25.5 91v1102zM1432 1179q-81 0 -134.5 49t-53.5 124q0 74 53.5 123t133.5 49q82 0 135 -49t53 -124q0 -74 -53 -123t-134 -49z" />
    <glyph glyph-name="uni01C9" unicode="&#x1c9;" horiz-adv-x="1093" 
d="M446 1490v-1490h-346v1490h346zM647 1070h346v-1131q0 -120 -46 -199t-135 -118.5t-220 -39.5h-120v267h64q60 0 85.5 28t25.5 91v1102zM819 1179q-81 0 -134.5 49t-53.5 124q0 74 53.5 123t133.5 49q82 0 135 -49t53 -124q0 -74 -53 -123t-134 -49z" />
    <glyph glyph-name="uni01CA" unicode="&#x1ca;" horiz-adv-x="2695" 
d="M101 0v1490h375l422 -676q27 -44 62.5 -108t74.5 -138.5t74 -149.5l-40 -76q-4 76 -8 173t-6 187t-2 145v643h360v-1490h-376l-387 620q-33 54 -75.5 127.5t-91 164.5t-102.5 194l62 23q7 -108 11 -207t5.5 -177.5t1.5 -124.5v-620h-360zM2077 -22q-241 0 -375.5 125
t-134.5 358v104h339v-108q0 -90 44 -137t123 -47q78 0 122 47t44 137v1033h357v-1036q0 -229 -136.5 -352.5t-382.5 -123.5z" />
    <glyph glyph-name="uni01CB" unicode="&#x1cb;" horiz-adv-x="2061" 
d="M101 0v1490h375l422 -676q27 -44 62.5 -108t74.5 -138.5t74 -149.5l-40 -76q-4 76 -8 173t-6 187t-2 145v643h360v-1490h-376l-387 620q-33 54 -75.5 127.5t-91 164.5t-102.5 194l62 23q7 -108 11 -207t5.5 -177.5t1.5 -124.5v-620h-360zM1615 1070h346v-1131
q0 -120 -46 -199t-135 -118.5t-220 -39.5h-120v267h64q60 0 85.5 28t25.5 91v1102zM1787 1179q-81 0 -134.5 49t-53.5 124q0 74 53.5 123t133.5 49q82 0 135 -49t53 -124q0 -74 -53 -123t-134 -49z" />
    <glyph glyph-name="uni01CC" unicode="&#x1cc;" horiz-adv-x="1793" 
d="M446 588v-588h-346v1070h337l2 -283h-43q48 138 139.5 221t242.5 83q116 0 198 -50t126.5 -143.5t44.5 -223.5v-674h-346v604q0 94 -45.5 144t-128.5 50q-55 0 -96 -23t-63 -69.5t-22 -117.5zM1348 1070h346v-1131q0 -120 -46 -199t-135 -118.5t-220 -39.5h-120v267h64
q60 0 85.5 28t25.5 91v1102zM1520 1179q-81 0 -134.5 49t-53.5 124q0 74 53.5 123t133.5 49q82 0 135 -49t53 -124q0 -74 -53 -123t-134 -49z" />
    <glyph glyph-name="uni01CD" unicode="&#x1cd;" horiz-adv-x="1525" 
d="M14 0l509 1490h474l514 -1490h-401l-203 654q-49 164 -96.5 334.5t-97.5 366.5h94q-51 -196 -98 -366.5t-97 -334.5l-207 -654h-391zM363 293v279h800v-279h-800zM632 1939l129 -165l132 165h266v-2l-267 -311h-263l-262 311v2h265z" />
    <glyph glyph-name="uni01CE" unicode="&#x1ce;" horiz-adv-x="1171" 
d="M421 -19q-106 0 -188 35t-128.5 105.5t-46.5 176.5q0 91 32 152t89 99t131.5 58t158.5 27q95 8 152 18t82 27.5t25 49.5v6q0 33 -18 57t-51 37.5t-79 13.5q-47 0 -83 -14t-57 -40.5t-26 -62.5l-319 9q11 111 71 190.5t167 122.5t257 43q113 0 202 -24.5t151.5 -72
t95 -116t32.5 -156.5v-722h-334v150h-6q-31 -57 -74.5 -94.5t-101.5 -56t-134 -18.5zM526 208q58 0 104.5 22t73.5 61.5t27 92.5v98q-14 -6 -33.5 -12t-44 -11.5t-52.5 -10.5t-58 -10q-47 -7 -82.5 -22.5t-55.5 -40.5t-20 -61q0 -33 18 -57t49.5 -36.5t73.5 -12.5zM450 1519
l129 -165l132 165h266v-2l-267 -311h-263l-262 311v2h265z" />
    <glyph glyph-name="uni01CF" unicode="&#x1cf;" horiz-adv-x="559" 
d="M459 1490v-1490h-358v1490h358zM149 1939l129 -165l132 165h266v-2l-267 -311h-263l-262 311v2h265z" />
    <glyph glyph-name="uni01D0" unicode="&#x1d0;" horiz-adv-x="546" 
d="M100 0v1070h346v-1070h-346zM142 1519l129 -165l132 165h266v-2l-267 -311h-263l-262 311v2h265z" />
    <glyph glyph-name="uni01D1" unicode="&#x1d1;" horiz-adv-x="1541" 
d="M771 -23q-202 0 -363.5 91t-255 262.5t-93.5 413.5q0 244 93.5 416t255 262.5t363.5 90.5q201 0 362 -90.5t255.5 -262.5t94.5 -416q0 -243 -94.5 -414.5t-255.5 -262t-362 -90.5zM771 290q107 0 185.5 53t121.5 155t43 246q0 145 -43 247.5t-121.5 155.5t-185.5 53
t-185.5 -53t-121.5 -155.5t-43 -247.5q0 -144 43 -246t121.5 -155t185.5 -53zM640 1939l129 -165l132 165h266v-2l-267 -311h-263l-262 311v2h265z" />
    <glyph glyph-name="uni01D2" unicode="&#x1d2;" horiz-adv-x="1227" 
d="M614 -23q-168 0 -293.5 69t-194.5 194t-69 294q0 168 69 293t194.5 195t293.5 70t293 -70t194 -195t69 -293q0 -169 -69 -294t-194 -194t-293 -69zM614 249q61 0 107.5 34t72.5 98t26 153q0 91 -26 154t-72.5 97t-107.5 34q-62 0 -109 -33.5t-72.5 -97t-25.5 -154.5
q0 -90 25.5 -153.5t72.5 -97.5t109 -34zM482 1519l129 -165l132 165h266v-2l-267 -311h-263l-262 311v2h265z" />
    <glyph glyph-name="uni01D3" unicode="&#x1d3;" horiz-adv-x="1453" 
d="M727 -23q-190 0 -331 68.5t-219 192t-78 287.5v965h351v-935q0 -79 35 -140t97 -96t145 -35t145 35t96.5 95.5t34.5 140.5v935h351v-965q0 -164 -78 -287.5t-219 -192t-330 -68.5zM595 1939l129 -165l132 165h266v-2l-267 -311h-263l-262 311v2h265z" />
    <glyph glyph-name="uni01D4" unicode="&#x1d4;" horiz-adv-x="1247" 
d="M469 -21q-115 0 -198 50t-127 143.5t-44 223.5v674h346v-604q0 -93 45.5 -143.5t128.5 -50.5q55 0 95.5 23t63 69.5t22.5 117.5v588h346v-1070h-338l-1 283h43q-48 -138 -139.5 -221t-242.5 -83zM492 1519l129 -165l132 165h266v-2l-267 -311h-263l-262 311v2h265z" />
    <glyph glyph-name="uni01D5" unicode="&#x1d5;" horiz-adv-x="1453" 
d="M727 -23q-190 0 -331 68.5t-219 192t-78 287.5v965h351v-935q0 -79 35 -140t97 -96t145 -35t145 35t96.5 95.5t34.5 140.5v935h351v-965q0 -164 -78 -287.5t-219 -192t-330 -68.5zM944 1590q-76 0 -126.5 48t-50.5 120q0 73 50.5 120.5t126.5 47.5t126 -47.5t50 -120.5
q0 -72 -50 -120t-126 -48zM489 1590q-77 0 -127 48t-50 120q0 73 50 120.5t127 47.5q76 0 126 -47.5t50 -120.5q0 -72 -50 -120t-126 -48zM1021 2212v-184h-588v184h588z" />
    <glyph glyph-name="uni01D6" unicode="&#x1d6;" horiz-adv-x="1247" 
d="M469 -21q-115 0 -198 50t-127 143.5t-44 223.5v674h346v-604q0 -93 45.5 -143.5t128.5 -50.5q55 0 95.5 23t63 69.5t22.5 117.5v588h346v-1070h-338l-1 283h43q-48 -138 -139.5 -221t-242.5 -83zM840 1170q-76 0 -126.5 48t-50.5 120q0 73 50.5 120.5t126.5 47.5
t126 -47.5t50 -120.5q0 -72 -50 -120t-126 -48zM385 1170q-77 0 -127 48t-50 120q0 73 50 120.5t127 47.5q76 0 126 -47.5t50 -120.5q0 -72 -50 -120t-126 -48zM917 1792v-184h-588v184h588z" />
    <glyph glyph-name="uni01D7" unicode="&#x1d7;" horiz-adv-x="1453" 
d="M727 -23q-190 0 -331 68.5t-219 192t-78 287.5v965h351v-935q0 -79 35 -140t97 -96t145 -35t145 35t96.5 95.5t34.5 140.5v935h351v-965q0 -164 -78 -287.5t-219 -192t-330 -68.5zM944 1590q-76 0 -126.5 48t-50.5 120q0 73 50.5 120.5t126.5 47.5t126 -47.5t50 -120.5
q0 -72 -50 -120t-126 -48zM488 1590q-76 0 -126 48t-50 120q0 73 50 120.5t126 47.5q77 0 127 -47.5t50 -120.5q0 -72 -50 -120t-127 -48zM617 1983l159 283h290l-239 -283h-210z" />
    <glyph glyph-name="uni01D8" unicode="&#x1d8;" horiz-adv-x="1247" 
d="M469 -21q-115 0 -198 50t-127 143.5t-44 223.5v674h346v-604q0 -93 45.5 -143.5t128.5 -50.5q55 0 95.5 23t63 69.5t22.5 117.5v588h346v-1070h-338l-1 283h43q-48 -138 -139.5 -221t-242.5 -83zM840 1170q-76 0 -126.5 48t-50.5 120q0 73 50.5 120.5t126.5 47.5
t126 -47.5t50 -120.5q0 -72 -50 -120t-126 -48zM384 1170q-76 0 -126 48t-50 120q0 73 50 120.5t126 47.5q77 0 127 -47.5t50 -120.5q0 -72 -50 -120t-127 -48zM513 1563l159 283h290l-239 -283h-210z" />
    <glyph glyph-name="uni01D9" unicode="&#x1d9;" horiz-adv-x="1453" 
d="M727 -23q-190 0 -331 68.5t-219 192t-78 287.5v965h351v-935q0 -79 35 -140t97 -96t145 -35t145 35t96.5 95.5t34.5 140.5v935h351v-965q0 -164 -78 -287.5t-219 -192t-330 -68.5zM944 1590q-76 0 -126.5 48t-50.5 120q0 73 50.5 120.5t126.5 47.5t126 -47.5t50 -120.5
q0 -72 -50 -120t-126 -48zM488 1590q-76 0 -126 48t-50 120q0 73 50 120.5t126 47.5q77 0 127 -47.5t50 -120.5q0 -72 -50 -120t-127 -48zM605 2261l117 -149l120 149h238v-2l-241 -281h-235l-236 281v2h237z" />
    <glyph glyph-name="uni01DA" unicode="&#x1da;" horiz-adv-x="1247" 
d="M469 -21q-115 0 -198 50t-127 143.5t-44 223.5v674h346v-604q0 -93 45.5 -143.5t128.5 -50.5q55 0 95.5 23t63 69.5t22.5 117.5v588h346v-1070h-338l-1 283h43q-48 -138 -139.5 -221t-242.5 -83zM840 1170q-76 0 -126.5 48t-50.5 120q0 73 50.5 120.5t126.5 47.5
t126 -47.5t50 -120.5q0 -72 -50 -120t-126 -48zM384 1170q-76 0 -126 48t-50 120q0 73 50 120.5t126 47.5q77 0 127 -47.5t50 -120.5q0 -72 -50 -120t-127 -48zM501 1841l117 -149l120 149h238v-2l-241 -281h-235l-236 281v2h237z" />
    <glyph glyph-name="uni01DB" unicode="&#x1db;" horiz-adv-x="1453" 
d="M727 -23q-190 0 -331 68.5t-219 192t-78 287.5v965h351v-935q0 -79 35 -140t97 -96t145 -35t145 35t96.5 95.5t34.5 140.5v935h351v-965q0 -164 -78 -287.5t-219 -192t-330 -68.5zM943 1590q-76 0 -126.5 48.5t-50.5 120.5t50.5 120t126.5 48t126 -47.5t50 -120.5
t-50 -121t-126 -48zM487 1590q-76 0 -126 48.5t-50 120.5t50 120t126 48q77 0 127 -47.5t50 -120.5t-50 -121t-127 -48zM616 1983l-238 283h289l160 -283h-211z" />
    <glyph glyph-name="uni01DC" unicode="&#x1dc;" horiz-adv-x="1247" 
d="M469 -21q-115 0 -198 50t-127 143.5t-44 223.5v674h346v-604q0 -93 45.5 -143.5t128.5 -50.5q55 0 95.5 23t63 69.5t22.5 117.5v588h346v-1070h-338l-1 283h43q-48 -138 -139.5 -221t-242.5 -83zM840 1170q-76 0 -126.5 48.5t-50.5 120.5t50.5 120t126.5 48t126 -47.5
t50 -120.5t-50 -121t-126 -48zM384 1170q-76 0 -126 48.5t-50 120.5t50 120t126 48q77 0 127 -47.5t50 -120.5t-50 -121t-127 -48zM513 1563l-238 283h289l160 -283h-211z" />
    <glyph glyph-name="eturn" unicode="&#x1dd;" horiz-adv-x="1184" 
d="M579 1093q166 0 289 -70.5t191.5 -196t68.5 -290.5q0 -163 -68.5 -289.5t-190 -197.5t-280.5 -71q-118 0 -216.5 39t-170 112t-110.5 174t-39 225v92h961v-205h-799l159 43q0 -70 24.5 -121t71.5 -78t112 -27q66 0 112.5 27t71.5 78t25 120v150q0 75 -27 127.5t-76 81
t-120 28.5q-49 0 -89 -14t-67 -39.5t-40 -60.5l-310 11q22 104 93.5 183.5t181 124t242.5 44.5z" />
    <glyph glyph-name="uni01DE" unicode="&#x1de;" horiz-adv-x="1525" 
d="M14 0l509 1490h474l514 -1490h-401l-203 654q-49 164 -96.5 334.5t-97.5 366.5h94q-51 -196 -98 -366.5t-97 -334.5l-207 -654h-391zM363 293v279h800v-279h-800zM980 1590q-76 0 -126.5 48t-50.5 120q0 73 50.5 120.5t126.5 47.5t126 -47.5t50 -120.5q0 -72 -50 -120
t-126 -48zM525 1590q-77 0 -127 48t-50 120q0 73 50 120.5t127 47.5q76 0 126 -47.5t50 -120.5q0 -72 -50 -120t-126 -48zM1057 2212v-184h-588v184h588z" />
    <glyph glyph-name="uni01DF" unicode="&#x1df;" horiz-adv-x="1171" 
d="M421 -19q-106 0 -188 35t-128.5 105.5t-46.5 176.5q0 91 32 152t89 99t131.5 58t158.5 27q95 8 152 18t82 27.5t25 49.5v6q0 33 -18 57t-51 37.5t-79 13.5q-47 0 -83 -14t-57 -40.5t-26 -62.5l-319 9q11 111 71 190.5t167 122.5t257 43q113 0 202 -24.5t151.5 -72
t95 -116t32.5 -156.5v-722h-334v150h-6q-31 -57 -74.5 -94.5t-101.5 -56t-134 -18.5zM526 208q58 0 104.5 22t73.5 61.5t27 92.5v98q-14 -6 -33.5 -12t-44 -11.5t-52.5 -10.5t-58 -10q-47 -7 -82.5 -22.5t-55.5 -40.5t-20 -61q0 -33 18 -57t49.5 -36.5t73.5 -12.5zM799 1170
q-76 0 -126.5 48t-50.5 120q0 73 50.5 120.5t126.5 47.5t126 -47.5t50 -120.5q0 -72 -50 -120t-126 -48zM344 1170q-77 0 -127 48t-50 120q0 73 50 120.5t127 47.5q76 0 126 -47.5t50 -120.5q0 -72 -50 -120t-126 -48zM876 1792v-184h-588v184h588z" />
    <glyph glyph-name="uni01E0" unicode="&#x1e0;" horiz-adv-x="1525" 
d="M14 0l509 1490h474l514 -1490h-401l-203 654q-49 164 -96.5 334.5t-97.5 366.5h94q-51 -196 -98 -366.5t-97 -334.5l-207 -654h-391zM363 293v279h800v-279h-800zM763 1584q-81 0 -134.5 49.5t-53.5 123.5t53.5 123t133.5 49q82 0 135 -49t53 -124q0 -74 -53 -123
t-134 -49zM1057 2212v-184h-589v184h589z" />
    <glyph glyph-name="uni01E1" unicode="&#x1e1;" horiz-adv-x="1171" 
d="M421 -19q-106 0 -188 35t-128.5 105.5t-46.5 176.5q0 91 32 152t89 99t131.5 58t158.5 27q95 8 152 18t82 27.5t25 49.5v6q0 33 -18 57t-51 37.5t-79 13.5q-47 0 -83 -14t-57 -40.5t-26 -62.5l-319 9q11 111 71 190.5t167 122.5t257 43q113 0 202 -24.5t151.5 -72
t95 -116t32.5 -156.5v-722h-334v150h-6q-31 -57 -74.5 -94.5t-101.5 -56t-134 -18.5zM526 208q58 0 104.5 22t73.5 61.5t27 92.5v98q-14 -6 -33.5 -12t-44 -11.5t-52.5 -10.5t-58 -10q-47 -7 -82.5 -22.5t-55.5 -40.5t-20 -61q0 -33 18 -57t49.5 -36.5t73.5 -12.5zM581 1164
q-81 0 -134.5 49.5t-53.5 123.5t53.5 123t133.5 49q82 0 135 -49t53 -124q0 -74 -53 -123t-134 -49zM875 1792v-184h-589v184h589z" />
    <glyph glyph-name="uni01E2" unicode="&#x1e2;" horiz-adv-x="2122" 
d="M14 0l606 1490h1431v-302h-735v-294h678v-294h-678v-298h735v-302h-1079v1203h-114l-469 -1203h-375zM365 321v263h733v-263h-733zM1643 1871v-210h-588v210h588z" />
    <glyph glyph-name="uni01E3" unicode="&#x1e3;" horiz-adv-x="1830" 
d="M454 -18q-124 0 -212.5 35.5t-136 106.5t-47.5 174q0 96 42 164t119 110.5t182 62.5t232 20h961l-138 -44q1 71 -23.5 121.5t-71 78t-112.5 27.5t-112.5 -27.5t-71.5 -77.5t-25 -120v-150q0 -75 26.5 -128t76.5 -81t119 -28q50 0 89.5 14t67 39.5t39.5 60.5l312 -2
q-19 -107 -91 -188.5t-182 -127t-246 -45.5q-97 0 -180 29t-145 81.5t-96 121.5l1 661q46 69 105.5 118.5t135 76.5t169.5 27q119 0 217.5 -39.5t170 -112t110.5 -173.5t39 -225v-92h-1190q-64 0 -109.5 -17t-69.5 -47t-24 -69q0 -53 39 -80.5t102 -27.5q58 0 104 21.5
t73 61t27 92.5v351q0 33 -18.5 57t-52 37.5t-79.5 13.5q-47 0 -83 -14t-57 -40.5t-26 -62.5l-319 9q10 99 68.5 179.5t163 128.5t249.5 48q130 0 220 -44.5t137 -125.5t48 -191l-6 -471h-60q-29 -82 -79 -135.5t-112.5 -84.5t-131.5 -44t-138 -13zM1191 1451v-210h-588v210
h588z" />
    <glyph glyph-name="Gbar" unicode="&#x1e4;" horiz-adv-x="1518" 
d="M777 -23q-215 0 -376.5 94.5t-251.5 267t-90 405.5q0 243 94 415.5t256 263t363 90.5q131 0 246 -37.5t204 -107.5t145 -166t68 -214h-363q-11 49 -35 88.5t-61 67t-85 42t-108 14.5q-114 0 -195 -54t-124 -155.5t-43 -245.5t43 -245.5t125 -155.5t198 -54q97 0 166.5 33
t107 93t37.5 140l77 -8h-375v263h647v-200q0 -192 -85 -334.5t-236 -221t-349 -78.5zM800 369v108h748v-108h-748z" />
    <glyph glyph-name="gbar" unicode="&#x1e5;" horiz-adv-x="1381" 
d="M620 -434q-159 0 -267.5 43.5t-169 119.5t-77.5 175l323 13q9 -32 34.5 -56t64.5 -37.5t91 -13.5q99 0 150.5 52t51.5 156v170h-6q-26 -59 -70 -99t-102.5 -60t-131.5 -20q-134 0 -236.5 66t-160 186t-57.5 282q0 166 58.5 289t161 191t232.5 68q73 0 131.5 -22t103 -62
t74.5 -95h3v158h343v-1020q0 -167 -67 -274.5t-189 -158.5t-288 -51zM613 275q66 0 114.5 33.5t75.5 95t27 144.5q0 84 -27 145.5t-75.5 95t-114.5 33.5q-64 0 -110 -33t-71 -94.5t-25 -146.5t25 -146t71 -94t110 -33zM636 498v138h704v-138h-704z" />
    <glyph glyph-name="Gcaron" unicode="&#x1e6;" horiz-adv-x="1518" 
d="M777 -23q-215 0 -376.5 94.5t-251.5 267t-90 405.5q0 243 94 415.5t256 263t363 90.5q131 0 246 -37.5t204 -107.5t145 -166t68 -214h-363q-11 49 -35 88.5t-61 67t-85 42t-108 14.5q-114 0 -195 -54t-124 -155.5t-43 -245.5t43 -245.5t125 -155.5t198 -54q97 0 166.5 33
t107 93t37.5 140l77 -8h-375v263h647v-200q0 -192 -85 -334.5t-236 -221t-349 -78.5zM632 1939l129 -165l132 165h266v-2l-267 -311h-263l-262 311v2h265z" />
    <glyph glyph-name="gcaron" unicode="&#x1e7;" horiz-adv-x="1264" 
d="M620 -434q-159 0 -267.5 43.5t-169 119.5t-77.5 175l323 13q9 -32 34.5 -56t64.5 -37.5t91 -13.5q99 0 150.5 52t51.5 156v170h-6q-26 -59 -70 -99t-102.5 -60t-131.5 -20q-134 0 -236.5 66t-160 186t-57.5 282q0 166 58.5 289t161 191t232.5 68q73 0 131.5 -22t103 -62
t74.5 -95h3v158h343v-1020q0 -167 -67 -274.5t-189 -158.5t-288 -51zM613 275q66 0 114.5 33.5t75.5 95t27 144.5q0 84 -27 145.5t-75.5 95t-114.5 33.5q-64 0 -110 -33t-71 -94.5t-25 -146.5t25 -146t71 -94t110 -33zM481 1519l129 -165l132 165h266v-2l-267 -311h-263
l-262 311v2h265z" />
    <glyph glyph-name="uni01E8" unicode="&#x1e8;" horiz-adv-x="1461" 
d="M364 272v411q49 69 97.5 134.5t99.5 130.5t107 135l333 407h423l-626 -746l-31 3zM101 0v1490h358v-367l-2 -402l2 -172v-549h-358zM1032 0l-404 638l217 269l601 -907h-414zM591 1939l129 -165l132 165h266v-2l-267 -311h-263l-262 311v2h265z" />
    <glyph glyph-name="uni01E9" unicode="&#x1e9;" horiz-adv-x="1174" 
d="M411 279v409h41l321 382h397l-465 -551h-90zM100 0v1490h346v-1490h-346zM788 0l-295 443l226 242l468 -685h-399zM142 1939l129 -165l132 165h266v-2l-267 -311h-263l-262 311v2h265z" />
    <glyph glyph-name="uni01EA" unicode="&#x1ea;" horiz-adv-x="1541" 
d="M771 -23q-202 0 -363.5 91t-255 262.5t-93.5 413.5q0 244 93.5 416t255 262.5t363.5 90.5q201 0 362 -90.5t255.5 -262.5t94.5 -416q0 -243 -94.5 -414.5t-255.5 -262t-362 -90.5zM771 290q107 0 185.5 53t121.5 155t43 246q0 145 -43 247.5t-121.5 155.5t-185.5 53
t-185.5 -53t-121.5 -155.5t-43 -247.5q0 -144 43 -246t121.5 -155t185.5 -53zM845 -420q-141 0 -220 55t-79 156q0 79 46 132.5t121.5 93.5t165.5 79.5t180 88.5t165.5 121.5t121.5 178.5t46 259h90q0 -158 -33 -272t-87 -194.5t-119.5 -134.5t-130.5 -92t-119.5 -68
t-87.5 -61.5t-33 -73.5q0 -32 19.5 -48t57.5 -16q16 0 31 1.5t30 3.5l15 -198q-36 -5 -87.5 -8t-92.5 -3z" />
    <glyph glyph-name="uni01EB" unicode="&#x1eb;" horiz-adv-x="1227" 
d="M614 -23q-168 0 -293.5 69t-194.5 194t-69 294q0 168 69 293t194.5 195t293.5 70t293 -70t194 -195t69 -293q0 -169 -69 -294t-194 -194t-293 -69zM614 249q61 0 107.5 34t72.5 98t26 153q0 91 -26 154t-72.5 97t-107.5 34q-62 0 -109 -33.5t-72.5 -97t-25.5 -154.5
q0 -90 25.5 -153.5t72.5 -97.5t109 -34zM681 -420q-144 0 -222.5 54.5t-78.5 155.5q0 73 37.5 123.5t99 88.5t135.5 71.5t147.5 71.5t135 89t99 123.5t37.5 176.5h99q0 -131 -34 -221.5t-87.5 -151t-113.5 -101t-113.5 -72.5t-87.5 -64t-34 -76q0 -32 19.5 -48t60.5 -16
q15 0 28.5 1.5t27.5 3.5l15 -198q-35 -5 -82.5 -8t-87.5 -3z" />
    <glyph glyph-name="uni01EC" unicode="&#x1ec;" horiz-adv-x="1541" 
d="M771 -23q-202 0 -363.5 91t-255 262.5t-93.5 413.5q0 244 93.5 416t255 262.5t363.5 90.5q201 0 362 -90.5t255.5 -262.5t94.5 -416q0 -243 -94.5 -414.5t-255.5 -262t-362 -90.5zM771 290q107 0 185.5 53t121.5 155t43 246q0 145 -43 247.5t-121.5 155.5t-185.5 53
t-185.5 -53t-121.5 -155.5t-43 -247.5q0 -144 43 -246t121.5 -155t185.5 -53zM845 -420q-141 0 -220 55t-79 156q0 79 46 132.5t121.5 93.5t165.5 79.5t180 88.5t165.5 121.5t121.5 178.5t46 259h90q0 -158 -33 -272t-87 -194.5t-119.5 -134.5t-130.5 -92t-119.5 -68
t-87.5 -61.5t-33 -73.5q0 -32 19.5 -48t57.5 -16q16 0 31 1.5t30 3.5l15 -198q-36 -5 -87.5 -8t-92.5 -3zM1065 1871v-210h-588v210h588z" />
    <glyph glyph-name="uni01ED" unicode="&#x1ed;" horiz-adv-x="1227" 
d="M614 -23q-168 0 -293.5 69t-194.5 194t-69 294q0 168 69 293t194.5 195t293.5 70t293 -70t194 -195t69 -293q0 -169 -69 -294t-194 -194t-293 -69zM614 249q61 0 107.5 34t72.5 98t26 153q0 91 -26 154t-72.5 97t-107.5 34q-62 0 -109 -33.5t-72.5 -97t-25.5 -154.5
q0 -90 25.5 -153.5t72.5 -97.5t109 -34zM681 -420q-144 0 -222.5 54.5t-78.5 155.5q0 73 37.5 123.5t99 88.5t135.5 71.5t147.5 71.5t135 89t99 123.5t37.5 176.5h99q0 -131 -34 -221.5t-87.5 -151t-113.5 -101t-113.5 -72.5t-87.5 -64t-34 -76q0 -32 19.5 -48t60.5 -16
q15 0 28.5 1.5t27.5 3.5l15 -198q-35 -5 -82.5 -8t-87.5 -3zM907 1451v-210h-588v210h588z" />
    <glyph glyph-name="uni01EE" unicode="&#x1ee;" horiz-adv-x="1376" 
d="M48 119h353q4 -79 41 -139t98.5 -94t137.5 -34q89 0 152.5 46t96.5 125.5t33 181.5q0 116 -41.5 198.5t-113.5 127.5t-165 45h-175v249l393 361v12h-729v292h1159v-254l-473 -429v-15q154 -13 269 -90.5t178.5 -203t63.5 -286.5q0 -143 -47.5 -262.5t-133.5 -207
t-204 -136t-260 -48.5q-179 0 -320.5 72t-225 199t-87.5 290zM555 1939l129 -165l132 165h266v-2l-267 -311h-263l-262 311v2h265z" />
    <glyph glyph-name="uni01EF" unicode="&#x1ef;" horiz-adv-x="1291" 
d="M651 -443q-188 0 -318 69.5t-197.5 185.5t-68.5 255h343q1 -70 31.5 -122.5t84.5 -81.5t124 -29q68 0 120 28t81 78.5t29 116.5q0 64 -31 111.5t-88.5 73.5t-136.5 26h-203v208l326 306v3h-602v285h1017v-267l-474 -432v75q178 19 299 -30.5t183 -147.5t62 -226
q0 -143 -73 -252.5t-203.5 -171t-304.5 -61.5zM523 1519l129 -165l132 165h266v-2l-267 -311h-263l-262 311v2h265z" />
    <glyph glyph-name="uni01F0" unicode="&#x1f0;" horiz-adv-x="547" 
d="M101 1070h346v-1131q0 -120 -46 -199t-135 -118.5t-220 -39.5h-120v267h64q60 0 85.5 28t25.5 91v1102zM143 1519l129 -165l132 165h266v-2l-267 -311h-263l-262 311v2h265z" />
    <glyph glyph-name="uni01F1" unicode="&#x1f1;" horiz-adv-x="2786" 
d="M652 0h-396v300h379q135 0 223.5 48.5t132 147.5t43.5 249t-44 249t-133.5 147.5t-225.5 48.5h-381v300h403q226 0 393 -91t257.5 -258t90.5 -396t-90 -396t-256.5 -258t-395.5 -91zM459 1490v-1490h-358v1490h358zM1518 0v258l603 746q62 77 130.5 153t139.5 153
l37 -119q-99 -2 -199 -2.5t-201 -0.5h-496v302h1184v-258l-593 -741q-63 -78 -132 -156t-141 -156l-37 120q101 2 202.5 2.5t202.5 0.5h504v-302h-1204z" />
    <glyph glyph-name="uni01F2" unicode="&#x1f2;" horiz-adv-x="2579" 
d="M652 0h-396v300h379q135 0 223.5 48.5t132 147.5t43.5 249t-44 249t-133.5 147.5t-225.5 48.5h-381v300h403q226 0 393 -91t257.5 -258t90.5 -396t-90 -396t-256.5 -258t-395.5 -91zM459 1490v-1490h-358v1490h358zM1554 0v220l506 578v3h-502v269h909v-236l-489 -563v-4
h499v-267h-923z" />
    <glyph glyph-name="uni01F3" unicode="&#x1f3;" horiz-adv-x="2389" 
d="M511 -22q-134 0 -237 68t-160 193t-57 297q0 170 58.5 294.5t161 192.5t231.5 68q74 0 131.5 -21t101 -59.5t74.5 -94.5h2v574h346v-1490h-342v167h-3q-26 -59 -70 -101.5t-103.5 -65t-133.5 -22.5zM613 253q65 0 114 35t76 98.5t27 149.5t-27 149t-76 97.5t-114 34.5
q-64 0 -110.5 -34t-71 -97t-24.5 -150t25 -150.5t71 -98t110 -34.5zM1364 0v220l506 578v3h-502v269h909v-236l-489 -563v-4h499v-267h-923z" />
    <glyph glyph-name="uni01F4" unicode="&#x1f4;" horiz-adv-x="1518" 
d="M777 -23q-215 0 -376.5 94.5t-251.5 267t-90 405.5q0 243 94 415.5t256 263t363 90.5q131 0 246 -37.5t204 -107.5t145 -166t68 -214h-363q-11 49 -35 88.5t-61 67t-85 42t-108 14.5q-114 0 -195 -54t-124 -155.5t-43 -245.5t43 -245.5t125 -155.5t198 -54q97 0 166.5 33
t107 93t37.5 140l77 -8h-375v263h647v-200q0 -192 -85 -334.5t-236 -221t-349 -78.5zM631 1620l176 319h323l-264 -319h-235z" />
    <glyph glyph-name="uni01F5" unicode="&#x1f5;" horiz-adv-x="1264" 
d="M620 -434q-159 0 -267.5 43.5t-169 119.5t-77.5 175l323 13q9 -32 34.5 -56t64.5 -37.5t91 -13.5q99 0 150.5 52t51.5 156v170h-6q-26 -59 -70 -99t-102.5 -60t-131.5 -20q-134 0 -236.5 66t-160 186t-57.5 282q0 166 58.5 289t161 191t232.5 68q73 0 131.5 -22t103 -62
t74.5 -95h3v158h343v-1020q0 -167 -67 -274.5t-189 -158.5t-288 -51zM613 275q66 0 114.5 33.5t75.5 95t27 144.5q0 84 -27 145.5t-75.5 95t-114.5 33.5q-64 0 -110 -33t-71 -94.5t-25 -146.5t25 -146t71 -94t110 -33zM480 1200l176 319h323l-264 -319h-235z" />
    <glyph glyph-name="uni01F6" unicode="&#x1f6;" horiz-adv-x="2221" 
d="M1579 -22q-163 0 -286 59t-192 165.5t-69 248.5v154h-573v-605h-358v1490h358v-584h573v584h358v-1022q0 -64 23 -110.5t66 -71t103 -24.5t103 24.5t66 71t23 110.5v593h347v-610q0 -142 -68 -248.5t-190 -165.5t-284 -59z" />
    <glyph glyph-name="uni01F7" unicode="&#x1f7;" horiz-adv-x="1567" 
d="M515 1490v-1908h-343v1908h343zM366 -189v282q169 52 296 122t212 157.5t128 191.5t43 224v56q0 71 -10 140t-38 125.5t-81.5 89.5t-138.5 33q-89 0 -162.5 -34t-125.5 -92t-74 -131v409q48 54 139 90t219 36q183 0 324.5 -77t222 -226.5t80.5 -366.5v-52
q-1 -166 -68 -313.5t-198 -272.5t-323.5 -223.5t-444.5 -167.5z" />
    <glyph glyph-name="uni01F8" unicode="&#x1f8;" horiz-adv-x="1514" 
d="M101 0v1490h375l422 -676q27 -44 62.5 -108t74.5 -138.5t74 -149.5l-40 -76q-4 76 -8 173t-6 187t-2 145v643h360v-1490h-376l-387 620q-33 54 -75.5 127.5t-91 164.5t-102.5 194l62 23q7 -108 11 -207t5.5 -177.5t1.5 -124.5v-620h-360zM654 1620l-263 319h322l176 -319
h-235z" />
    <glyph glyph-name="uni01F9" unicode="&#x1f9;" horiz-adv-x="1247" 
d="M446 588v-588h-346v1070h337l2 -283h-43q48 138 139.5 221t242.5 83q116 0 198 -50t126.5 -143.5t44.5 -223.5v-674h-346v604q0 94 -45.5 144t-128.5 50q-55 0 -96 -23t-63 -69.5t-22 -117.5zM519 1200l-263 319h322l176 -319h-235z" />
    <glyph glyph-name="Aringacute" unicode="&#x1fa;" horiz-adv-x="1525" 
d="M14 0l509 1490h474l514 -1490h-401l-203 654q-49 164 -96.5 334.5t-97.5 366.5h94q-51 -196 -98 -366.5t-97 -334.5l-207 -654h-391zM363 293v279h800v-279h-800zM657 2083l146 218h278l-211 -218h-213zM763 1564q-77 0 -136 30.5t-93 82.5t-34 118q0 67 33.5 119t93 82
t135.5 30q77 0 136 -30t93 -82t34 -119q0 -66 -34 -118t-93 -82.5t-135 -30.5zM763 1698q44 0 72.5 27.5t28.5 69.5q0 43 -28.5 70t-73.5 27q-44 0 -73 -27.5t-29 -69.5t29 -69.5t74 -27.5z" />
    <glyph glyph-name="aringacute" unicode="&#x1fb;" horiz-adv-x="1171" 
d="M421 -19q-106 0 -188 35t-128.5 105.5t-46.5 176.5q0 91 32 152t89 99t131.5 58t158.5 27q95 8 152 18t82 27.5t25 49.5v6q0 33 -18 57t-51 37.5t-79 13.5q-47 0 -83 -14t-57 -40.5t-26 -62.5l-319 9q11 111 71 190.5t167 122.5t257 43q113 0 202 -24.5t151.5 -72
t95 -116t32.5 -156.5v-722h-334v150h-6q-31 -57 -74.5 -94.5t-101.5 -56t-134 -18.5zM526 208q58 0 104.5 22t73.5 61.5t27 92.5v98q-14 -6 -33.5 -12t-44 -11.5t-52.5 -10.5t-58 -10q-47 -7 -82.5 -22.5t-55.5 -40.5t-20 -61q0 -33 18 -57t49.5 -36.5t73.5 -12.5zM477 1707
l146 218h278l-211 -218h-213zM581 1152q-74 0 -133.5 31.5t-94 86.5t-34.5 125t34.5 125t94 87t133.5 32q76 0 135 -32t93.5 -87t34.5 -125t-34.5 -125t-93.5 -86.5t-135 -31.5zM581 1293q45 0 74 29.5t29 72.5q0 44 -29 73.5t-74 29.5q-43 0 -72.5 -29.5t-29.5 -73.5
q0 -43 29.5 -72.5t72.5 -29.5z" />
    <glyph glyph-name="AEacute" unicode="&#x1fc;" horiz-adv-x="2122" 
d="M14 0l606 1490h1431v-302h-735v-294h678v-294h-678v-298h735v-302h-1079v1203h-114l-469 -1203h-375zM365 321v263h733v-263h-733zM1217 1620l176 319h323l-264 -319h-235z" />
    <glyph glyph-name="aeacute" unicode="&#x1fd;" horiz-adv-x="1830" 
d="M454 -18q-124 0 -212.5 35.5t-136 106.5t-47.5 174q0 96 42 164t119 110.5t182 62.5t232 20h961l-138 -44q1 71 -23.5 121.5t-71 78t-112.5 27.5t-112.5 -27.5t-71.5 -77.5t-25 -120v-150q0 -75 26.5 -128t76.5 -81t119 -28q50 0 89.5 14t67 39.5t39.5 60.5l312 -2
q-19 -107 -91 -188.5t-182 -127t-246 -45.5q-97 0 -180 29t-145 81.5t-96 121.5l1 661q46 69 105.5 118.5t135 76.5t169.5 27q119 0 217.5 -39.5t170 -112t110.5 -173.5t39 -225v-92h-1190q-64 0 -109.5 -17t-69.5 -47t-24 -69q0 -53 39 -80.5t102 -27.5q58 0 104 21.5
t73 61t27 92.5v351q0 33 -18.5 57t-52 37.5t-79.5 13.5q-47 0 -83 -14t-57 -40.5t-26 -62.5l-319 9q10 99 68.5 179.5t163 128.5t249.5 48q130 0 220 -44.5t137 -125.5t48 -191l-6 -471h-60q-29 -82 -79 -135.5t-112.5 -84.5t-131.5 -44t-138 -13zM765 1200l176 319h323
l-264 -319h-235z" />
    <glyph glyph-name="Oslashacute" unicode="&#x1fe;" horiz-adv-x="1541" 
d="M771 -23q-202 0 -363.5 91t-255 262.5t-93.5 413.5q0 244 93.5 416t255 262.5t363.5 90.5q201 0 362 -90.5t255.5 -262.5t94.5 -416q0 -243 -94.5 -414.5t-255.5 -262t-362 -90.5zM771 290q107 0 185.5 53t121.5 155t43 246q0 145 -43 247.5t-121.5 155.5t-185.5 53
t-185.5 -53t-121.5 -155.5t-43 -247.5q0 -144 43 -246t121.5 -155t185.5 -53zM236 -79l-178 150l1248 1497l178 -149zM639 1620l176 319h323l-264 -319h-235z" />
    <glyph glyph-name="oslashacute" unicode="&#x1ff;" horiz-adv-x="1227" 
d="M614 -23q-168 0 -293.5 69t-194.5 194t-69 294q0 168 69 293t194.5 195t293.5 70t293 -70t194 -195t69 -293q0 -169 -69 -294t-194 -194t-293 -69zM614 249q61 0 107.5 34t72.5 98t26 153q0 91 -26 154t-72.5 97t-107.5 34q-62 0 -109 -33.5t-72.5 -97t-25.5 -154.5
q0 -90 25.5 -153.5t72.5 -97.5t109 -34zM168 -50l-107 100l998 1069l106 -99zM481 1200l176 319h323l-264 -319h-235z" />
    <glyph glyph-name="uni0200" unicode="&#x200;" horiz-adv-x="1525" 
d="M14 0l509 1490h474l514 -1490h-401l-203 654q-49 164 -96.5 334.5t-97.5 366.5h94q-51 -196 -98 -366.5t-97 -334.5l-207 -654h-391zM363 293v279h800v-279h-800zM850 1620l-191 319h295l131 -319h-235zM483 1620l-276 319h320l198 -319h-242z" />
    <glyph glyph-name="uni0201" unicode="&#x201;" horiz-adv-x="1171" 
d="M421 -19q-106 0 -188 35t-128.5 105.5t-46.5 176.5q0 91 32 152t89 99t131.5 58t158.5 27q95 8 152 18t82 27.5t25 49.5v6q0 33 -18 57t-51 37.5t-79 13.5q-47 0 -83 -14t-57 -40.5t-26 -62.5l-319 9q11 111 71 190.5t167 122.5t257 43q113 0 202 -24.5t151.5 -72
t95 -116t32.5 -156.5v-722h-334v150h-6q-31 -57 -74.5 -94.5t-101.5 -56t-134 -18.5zM526 208q58 0 104.5 22t73.5 61.5t27 92.5v98q-14 -6 -33.5 -12t-44 -11.5t-52.5 -10.5t-58 -10q-47 -7 -82.5 -22.5t-55.5 -40.5t-20 -61q0 -33 18 -57t49.5 -36.5t73.5 -12.5zM669 1200
l-191 319h295l131 -319h-235zM302 1200l-276 319h320l198 -319h-242z" />
    <glyph glyph-name="uni0202" unicode="&#x202;" horiz-adv-x="1525" 
d="M14 0l509 1490h474l514 -1490h-401l-203 654q-49 164 -96.5 334.5t-97.5 366.5h94q-51 -196 -98 -366.5t-97 -334.5l-207 -654h-391zM363 293v279h800v-279h-800zM763 1946q106 0 188.5 -42.5t130.5 -115t48 -162.5h-198q0 63 -48 103.5t-121 40.5q-74 0 -122.5 -40.5
t-48.5 -103.5h-196q0 90 47.5 162.5t131 115t188.5 42.5z" />
    <glyph glyph-name="uni0203" unicode="&#x203;" horiz-adv-x="1171" 
d="M421 -19q-106 0 -188 35t-128.5 105.5t-46.5 176.5q0 91 32 152t89 99t131.5 58t158.5 27q95 8 152 18t82 27.5t25 49.5v6q0 33 -18 57t-51 37.5t-79 13.5q-47 0 -83 -14t-57 -40.5t-26 -62.5l-319 9q11 111 71 190.5t167 122.5t257 43q113 0 202 -24.5t151.5 -72
t95 -116t32.5 -156.5v-722h-334v150h-6q-31 -57 -74.5 -94.5t-101.5 -56t-134 -18.5zM526 208q58 0 104.5 22t73.5 61.5t27 92.5v98q-14 -6 -33.5 -12t-44 -11.5t-52.5 -10.5t-58 -10q-47 -7 -82.5 -22.5t-55.5 -40.5t-20 -61q0 -33 18 -57t49.5 -36.5t73.5 -12.5zM582 1526
q106 0 188.5 -42.5t130.5 -115t48 -162.5h-198q0 63 -48 103.5t-121 40.5q-74 0 -122.5 -40.5t-48.5 -103.5h-196q0 90 47.5 162.5t131 115t188.5 42.5z" />
    <glyph glyph-name="uni0204" unicode="&#x204;" horiz-adv-x="1264" 
d="M101 0v1490h1093v-302h-735v-292h678v-293h-678v-301h734v-302h-1092zM734 1620l-191 319h295l131 -319h-235zM367 1620l-276 319h320l198 -319h-242z" />
    <glyph glyph-name="uni0205" unicode="&#x205;" horiz-adv-x="1184" 
d="M605 -23q-165 0 -288.5 70t-191.5 196t-68 291q0 164 68 289.5t189.5 197t280.5 71.5q119 0 217 -39.5t169.5 -112t111 -173.5t39.5 -225v-92h-961v205h798l-158 -43q0 70 -25 120.5t-71.5 78t-112.5 27.5q-65 0 -111.5 -27.5t-71.5 -77.5t-25 -120v-150
q0 -74 26.5 -127.5t76.5 -81.5t119 -28q50 0 89.5 14t66.5 39.5t40 60.5l310 -11q-21 -104 -93 -183.5t-181 -124t-243 -44.5zM681 1200l-191 319h295l131 -319h-235zM314 1200l-276 319h320l198 -319h-242z" />
    <glyph glyph-name="uni0206" unicode="&#x206;" horiz-adv-x="1264" 
d="M101 0v1490h1093v-302h-735v-292h678v-293h-678v-301h734v-302h-1092zM647 1946q106 0 188.5 -42.5t130.5 -115t48 -162.5h-198q0 63 -48 103.5t-121 40.5q-74 0 -122.5 -40.5t-48.5 -103.5h-196q0 90 47.5 162.5t131 115t188.5 42.5z" />
    <glyph glyph-name="uni0207" unicode="&#x207;" horiz-adv-x="1184" 
d="M605 -23q-165 0 -288.5 70t-191.5 196t-68 291q0 164 68 289.5t189.5 197t280.5 71.5q119 0 217 -39.5t169.5 -112t111 -173.5t39.5 -225v-92h-961v205h798l-158 -43q0 70 -25 120.5t-71.5 78t-112.5 27.5q-65 0 -111.5 -27.5t-71.5 -77.5t-25 -120v-150
q0 -74 26.5 -127.5t76.5 -81.5t119 -28q50 0 89.5 14t66.5 39.5t40 60.5l310 -11q-21 -104 -93 -183.5t-181 -124t-243 -44.5zM594 1526q106 0 188.5 -42.5t130.5 -115t48 -162.5h-198q0 63 -48 103.5t-121 40.5q-74 0 -122.5 -40.5t-48.5 -103.5h-196q0 90 47.5 162.5
t131 115t188.5 42.5z" />
    <glyph glyph-name="uni0208" unicode="&#x208;" horiz-adv-x="559" 
d="M459 1490v-1490h-358v1490h358zM367 1620l-191 319h295l131 -319h-235zM0 1620l-276 319h320l198 -319h-242z" />
    <glyph glyph-name="uni0209" unicode="&#x209;" horiz-adv-x="546" 
d="M100 0v1070h346v-1070h-346zM360 1200l-191 319h295l131 -319h-235zM-7 1200l-276 319h320l198 -319h-242z" />
    <glyph glyph-name="uni020A" unicode="&#x20a;" horiz-adv-x="559" 
d="M459 1490v-1490h-358v1490h358zM280 1946q106 0 188.5 -42.5t130.5 -115t48 -162.5h-198q0 63 -48 103.5t-121 40.5q-74 0 -122.5 -40.5t-48.5 -103.5h-196q0 90 47.5 162.5t131 115t188.5 42.5z" />
    <glyph glyph-name="uni020B" unicode="&#x20b;" horiz-adv-x="546" 
d="M100 0v1070h346v-1070h-346zM273 1526q106 0 188.5 -42.5t130.5 -115t48 -162.5h-198q0 63 -48 103.5t-121 40.5q-74 0 -122.5 -40.5t-48.5 -103.5h-196q0 90 47.5 162.5t131 115t188.5 42.5z" />
    <glyph glyph-name="uni020C" unicode="&#x20c;" horiz-adv-x="1541" 
d="M771 -23q-202 0 -363.5 91t-255 262.5t-93.5 413.5q0 244 93.5 416t255 262.5t363.5 90.5q201 0 362 -90.5t255.5 -262.5t94.5 -416q0 -243 -94.5 -414.5t-255.5 -262t-362 -90.5zM771 290q107 0 185.5 53t121.5 155t43 246q0 145 -43 247.5t-121.5 155.5t-185.5 53
t-185.5 -53t-121.5 -155.5t-43 -247.5q0 -144 43 -246t121.5 -155t185.5 -53zM858 1620l-191 319h295l131 -319h-235zM491 1620l-276 319h320l198 -319h-242z" />
    <glyph glyph-name="uni020D" unicode="&#x20d;" horiz-adv-x="1227" 
d="M614 -23q-168 0 -293.5 69t-194.5 194t-69 294q0 168 69 293t194.5 195t293.5 70t293 -70t194 -195t69 -293q0 -169 -69 -294t-194 -194t-293 -69zM614 249q61 0 107.5 34t72.5 98t26 153q0 91 -26 154t-72.5 97t-107.5 34q-62 0 -109 -33.5t-72.5 -97t-25.5 -154.5
q0 -90 25.5 -153.5t72.5 -97.5t109 -34zM701 1200l-191 319h295l131 -319h-235zM334 1200l-276 319h320l198 -319h-242z" />
    <glyph glyph-name="uni020E" unicode="&#x20e;" horiz-adv-x="1541" 
d="M771 -23q-202 0 -363.5 91t-255 262.5t-93.5 413.5q0 244 93.5 416t255 262.5t363.5 90.5q201 0 362 -90.5t255.5 -262.5t94.5 -416q0 -243 -94.5 -414.5t-255.5 -262t-362 -90.5zM771 290q107 0 185.5 53t121.5 155t43 246q0 145 -43 247.5t-121.5 155.5t-185.5 53
t-185.5 -53t-121.5 -155.5t-43 -247.5q0 -144 43 -246t121.5 -155t185.5 -53zM771 1946q106 0 188.5 -42.5t130.5 -115t48 -162.5h-198q0 63 -48 103.5t-121 40.5q-74 0 -122.5 -40.5t-48.5 -103.5h-196q0 90 47.5 162.5t131 115t188.5 42.5z" />
    <glyph glyph-name="uni020F" unicode="&#x20f;" horiz-adv-x="1227" 
d="M614 -23q-168 0 -293.5 69t-194.5 194t-69 294q0 168 69 293t194.5 195t293.5 70t293 -70t194 -195t69 -293q0 -169 -69 -294t-194 -194t-293 -69zM614 249q61 0 107.5 34t72.5 98t26 153q0 91 -26 154t-72.5 97t-107.5 34q-62 0 -109 -33.5t-72.5 -97t-25.5 -154.5
q0 -90 25.5 -153.5t72.5 -97.5t109 -34zM613 1526q106 0 188.5 -42.5t130.5 -115t48 -162.5h-198q0 63 -48 103.5t-121 40.5q-74 0 -122.5 -40.5t-48.5 -103.5h-196q0 90 47.5 162.5t131 115t188.5 42.5z" />
    <glyph glyph-name="uni0210" unicode="&#x210;" horiz-adv-x="1349" 
d="M101 0v1490h613q171 0 296.5 -61t193 -173.5t67.5 -267.5q0 -151 -70.5 -261t-199.5 -169t-305 -59h-378v282h360q75 0 128 25t82 71.5t29 110.5q0 65 -29 111.5t-82 72t-128 25.5h-219v-1197h-358zM932 0l-339 676h373l347 -676h-381zM758 1620l-191 319h295l131 -319
h-235zM391 1620l-276 319h320l198 -319h-242z" />
    <glyph glyph-name="uni0211" unicode="&#x211;" horiz-adv-x="818" 
d="M100 0v1070h335v-190h4q30 103 93 149.5t166 46.5q27 0 50.5 -1t44.5 -3v-288q-20 2 -60 4t-76 2q-62 0 -110 -28t-74.5 -80t-26.5 -126v-556h-346zM535 1200l-191 319h295l131 -319h-235zM168 1200l-276 319h320l198 -319h-242z" />
    <glyph glyph-name="uni0212" unicode="&#x212;" horiz-adv-x="1349" 
d="M101 0v1490h613q171 0 296.5 -61t193 -173.5t67.5 -267.5q0 -151 -70.5 -261t-199.5 -169t-305 -59h-378v282h360q75 0 128 25t82 71.5t29 110.5q0 65 -29 111.5t-82 72t-128 25.5h-219v-1197h-358zM932 0l-339 676h373l347 -676h-381zM670 1946q106 0 188.5 -42.5
t130.5 -115t48 -162.5h-198q0 63 -48 103.5t-121 40.5q-74 0 -122.5 -40.5t-48.5 -103.5h-196q0 90 47.5 162.5t131 115t188.5 42.5z" />
    <glyph glyph-name="uni0213" unicode="&#x213;" horiz-adv-x="818" 
d="M100 0v1070h335v-190h4q30 103 93 149.5t166 46.5q27 0 50.5 -1t44.5 -3v-288q-20 2 -60 4t-76 2q-62 0 -110 -28t-74.5 -80t-26.5 -126v-556h-346zM448 1526q106 0 188.5 -42.5t130.5 -115t48 -162.5h-198q0 63 -48 103.5t-121 40.5q-74 0 -122.5 -40.5t-48.5 -103.5
h-196q0 90 47.5 162.5t131 115t188.5 42.5z" />
    <glyph glyph-name="uni0214" unicode="&#x214;" horiz-adv-x="1453" 
d="M727 -23q-190 0 -331 68.5t-219 192t-78 287.5v965h351v-935q0 -79 35 -140t97 -96t145 -35t145 35t96.5 95.5t34.5 140.5v935h351v-965q0 -164 -78 -287.5t-219 -192t-330 -68.5zM814 1620l-191 319h295l131 -319h-235zM447 1620l-276 319h320l198 -319h-242z" />
    <glyph glyph-name="uni0215" unicode="&#x215;" horiz-adv-x="1247" 
d="M469 -21q-115 0 -198 50t-127 143.5t-44 223.5v674h346v-604q0 -93 45.5 -143.5t128.5 -50.5q55 0 95.5 23t63 69.5t22.5 117.5v588h346v-1070h-338l-1 283h43q-48 -138 -139.5 -221t-242.5 -83zM711 1200l-191 319h295l131 -319h-235zM344 1200l-276 319h320l198 -319
h-242z" />
    <glyph glyph-name="uni0216" unicode="&#x216;" horiz-adv-x="1453" 
d="M727 -23q-190 0 -331 68.5t-219 192t-78 287.5v965h351v-935q0 -79 35 -140t97 -96t145 -35t145 35t96.5 95.5t34.5 140.5v935h351v-965q0 -164 -78 -287.5t-219 -192t-330 -68.5zM727 1946q106 0 188.5 -42.5t130.5 -115t48 -162.5h-198q0 63 -48 103.5t-121 40.5
q-74 0 -122.5 -40.5t-48.5 -103.5h-196q0 90 47.5 162.5t131 115t188.5 42.5z" />
    <glyph glyph-name="uni0217" unicode="&#x217;" horiz-adv-x="1247" 
d="M469 -21q-115 0 -198 50t-127 143.5t-44 223.5v674h346v-604q0 -93 45.5 -143.5t128.5 -50.5q55 0 95.5 23t63 69.5t22.5 117.5v588h346v-1070h-338l-1 283h43q-48 -138 -139.5 -221t-242.5 -83zM624 1526q106 0 188.5 -42.5t130.5 -115t48 -162.5h-198q0 63 -48 103.5
t-121 40.5q-74 0 -122.5 -40.5t-48.5 -103.5h-196q0 90 47.5 162.5t131 115t188.5 42.5z" />
    <glyph glyph-name="uni0218" unicode="&#x218;" horiz-adv-x="1365" 
d="M689 -23q-195 0 -334 59.5t-212.5 174.5t-74.5 281h342q3 -71 38 -121.5t97 -77t146 -26.5q76 0 131.5 20t86.5 56.5t31 84.5q0 43 -26.5 74t-82.5 54.5t-144 41.5l-153 33q-213 44 -324 149.5t-111 269.5q0 139 74 243t206 162t305 58q177 0 306 -58.5t200.5 -166.5
t75.5 -258h-335q-7 90 -72 141.5t-172 51.5q-67 0 -118.5 -19.5t-79.5 -54.5t-28 -80q0 -43 25 -72.5t77.5 -51.5t133.5 -39l131 -27q120 -24 208 -62t146 -91t86 -122t28 -156q0 -148 -72 -253.5t-208 -161.5t-327 -56zM438 -473l92 355h317l-170 -355h-239z" />
    <glyph glyph-name="uni0219" unicode="&#x219;" horiz-adv-x="1119" 
d="M568 -25q-146 0 -258.5 43.5t-180 124t-79.5 191.5l336 11q11 -61 56.5 -96t123.5 -35q72 0 112.5 25t40.5 66q0 35 -33 57t-97 34l-192 35q-159 29 -240.5 108t-81.5 205q0 106 57.5 183.5t164.5 120t255 42.5q147 0 254 -43t168 -121.5t67 -187.5l-315 -11
q-4 55 -49 90.5t-114 35.5q-66 0 -105 -26t-39 -65q0 -34 29.5 -56.5t87.5 -34.5l212 -38q165 -31 243 -102t78 -189q0 -110 -63 -192.5t-176.5 -128.5t-261.5 -46zM315 -473l92 355h317l-170 -355h-239z" />
    <glyph glyph-name="uni021A.1" unicode="&#x21a;" horiz-adv-x="1336" 
d="M48 1188v302h1240v-302h-441v-1188h-358v1188h-441zM420 -473l92 355h317l-170 -355h-239z" />
    <glyph glyph-name="uni021B" unicode="&#x21b;" horiz-adv-x="799" 
d="M751 1070v-265h-732v265h732zM192 1353h346v-1001q0 -49 20.5 -68.5t75.5 -19.5q24 0 61 0.5t53 1.5l10 -263q-34 -4 -89 -5.5t-111 -1.5q-187 0 -276.5 74.5t-89.5 229.5v1053zM209 -473l92 355h317l-170 -355h-239z" />
    <glyph glyph-name="uni021C" unicode="&#x21c;" horiz-adv-x="1363" 
d="M226 314v259q193 57 321 105.5t203 98.5t106.5 108.5t31.5 134.5q0 111 -54.5 161.5t-165.5 50.5q-65 0 -112.5 -17t-73 -48t-25.5 -75h-345q0 124 71 218t196.5 147t288.5 53q173 0 299.5 -48.5t195 -146.5t68.5 -248q0 -133 -57 -244.5t-178.5 -202.5t-312 -166.5
t-457.5 -139.5zM725 538l53 203q142 2 248.5 -43.5t166 -133.5t59.5 -214q0 -160 -73.5 -292.5t-210 -233t-325 -166.5t-417.5 -94v274q160 31 286 78.5t213.5 112.5t133.5 148t46 183q0 104 -39 143t-141 35z" />
    <glyph glyph-name="uni021D" unicode="&#x21d;" horiz-adv-x="1170" 
d="M238 141v238q172 57 275.5 112t150.5 117.5t47 140.5q0 69 -32.5 102.5t-100.5 33.5q-43 0 -74 -14.5t-47.5 -40.5t-16.5 -64h-335q0 114 57 196t165 126t258 44q225 0 342 -90t117 -263q0 -141 -87.5 -257.5t-266 -211t-452.5 -169.5zM586 382l51 134q207 3 317 -80.5
t110 -243.5q0 -224 -207.5 -382t-618.5 -246v243q185 68 292 128.5t152.5 127t45.5 147.5q0 85 -40 130.5t-102 41.5z" />
    <glyph glyph-name="uni021E" unicode="&#x21e;" horiz-adv-x="1491" 
d="M101 0v1490h358v-580h573v580h358v-1490h-358v608h-573v-608h-358zM614 1939l129 -165l132 165h266v-2l-267 -311h-263l-262 311v2h265z" />
    <glyph glyph-name="uni021F" unicode="&#x21f;" horiz-adv-x="1247" 
d="M446 588v-588h-346v1490h344v-703h-48q48 138 139.5 221t242.5 83q116 0 198 -50t126.5 -143.5t44.5 -223.5v-674h-346v604q0 94 -45.5 144t-128.5 50q-55 0 -96 -23t-63 -69.5t-22 -117.5zM140 1939l129 -165l132 165h266v-2l-267 -311h-263l-262 311v2h265z" />
    <glyph glyph-name="uni0220" unicode="&#x220;" horiz-adv-x="1368" 
d="M1241 -416h-337v1487q0 60 -24 98t-69.5 57t-111.5 19q-126 0 -244.5 -75.5t-224.5 -217.5v309q101 118 233.5 183.5t284.5 65.5q139 0 250.5 -53.5t177 -151.5t65.5 -234v-1487zM464 1490v-1490h-335v1490h335z" />
    <glyph glyph-name="uni0221" unicode="&#x221;" horiz-adv-x="1583" 
d="M1252 -418q-152 0 -248 44.5t-141.5 130.5t-45.5 209v238h345v-326q0 -47 28.5 -71.5t70.5 -24.5q37 0 62 19t25 53q0 32 -24.5 53.5t-73.5 23.5q-30 1 -63 -8t-78 -35t-113 -74l-308 -233l-152 197l310 231q76 57 176 99t213 42q188 0 296 -88t108 -222
q0 -124 -99.5 -191t-287.5 -67zM511 -22q-134 0 -237 68t-160 193t-57 297q0 170 58.5 294.5t161 192.5t231.5 68q74 0 131.5 -21t101 -59.5t74.5 -94.5h2v574h346v-1490h-342v167h-3q-26 -59 -70 -101.5t-103.5 -65t-133.5 -22.5zM613 253q65 0 114 35t76 98.5t27 149.5
t-27 149t-76 97.5t-114 34.5q-64 0 -110.5 -34t-71 -97t-24.5 -150t25 -150.5t71 -98t110 -34.5z" />
    <glyph glyph-name="uni0222" unicode="&#x222;" horiz-adv-x="1365" 
d="M673 937h23q176 0 304 -54t198 -157t70 -252q0 -154 -72 -264.5t-200.5 -170t-299.5 -59.5h-23q-171 0 -301 59t-202.5 169t-72.5 263q0 149 69.5 253t199 158.5t307.5 54.5zM696 693h-23q-102 0 -163 -58.5t-61 -163.5q0 -103 61.5 -160t162.5 -57h23q100 -1 159.5 56
t59.5 164q0 105 -59.5 162t-159.5 57zM670 974h25q73 0 122.5 11t76 42t26.5 90q0 55 -24.5 84.5t-78.5 40.5v268q141 1 243 -45.5t157 -134t55 -213.5q0 -132 -71 -217t-200.5 -126.5t-305.5 -41.5h-25q-177 0 -305.5 41t-198 126.5t-69.5 217.5q0 126 54 214t156 134
t244 45v-268q-55 -11 -78.5 -40.5t-23.5 -84.5q0 -60 25.5 -91t74.5 -41.5t121 -10.5z" />
    <glyph glyph-name="uni0223" unicode="&#x223;" horiz-adv-x="1363" 
d="M672 916h21q163 0 291 -46.5t201 -146t73 -258.5q0 -157 -72.5 -265.5t-200 -164t-292.5 -55.5h-21q-165 0 -293.5 55.5t-201.5 164t-73 264.5q0 160 73 259.5t201.5 146t293.5 46.5zM693 681h-21q-111 0 -171 -60t-60 -156q0 -97 60 -157t171 -60h21q114 0 171.5 60
t57.5 157t-57.5 156t-171.5 60zM693 947q78 0 129 19.5t77.5 61t26.5 108.5q0 74 -32.5 112t-79.5 52v256q132 1 231.5 -45t156 -137.5t56.5 -229.5q0 -158 -73 -252.5t-200.5 -136t-291.5 -41.5h-23q-162 1 -290.5 42.5t-202 135.5t-73.5 252q0 136 56 227.5t156 138.5
t232 46v-256q-45 -14 -76 -52t-31 -112q0 -68 25.5 -109.5t76.5 -60.5t127 -19h23z" />
    <glyph glyph-name="uni0224" unicode="&#x224;" horiz-adv-x="1333" 
d="M693 -418v277q20 -1 53 -1.5t69 -0.5q51 0 73.5 21t22.5 65v57h358v-76q0 -172 -97.5 -259t-291.5 -87q-57 0 -106 1t-81 3zM65 0v258l603 746q62 77 130.5 153t139.5 153l37 -119q-99 -2 -199 -2.5t-201 -0.5h-496v302h1184v-258l-593 -741q-63 -78 -132 -156t-141 -156
l-37 120q101 2 202.5 2.5t202.5 0.5h504v-302h-1204z" />
    <glyph glyph-name="uni0225" unicode="&#x225;" horiz-adv-x="1126" 
d="M856 -224v83q0 68 -26 104.5t-91 36.5h-638v220l506 578v3h-502v269h909v-236l-489 -563v-4h256q174 0 267.5 -107t93.5 -300v-84h-286z" />
    <glyph glyph-name="uni0226" unicode="&#x226;" horiz-adv-x="1525" 
d="M14 0l509 1490h474l514 -1490h-401l-203 654q-49 164 -96.5 334.5t-97.5 366.5h94q-51 -196 -98 -366.5t-97 -334.5l-207 -654h-391zM363 293v279h800v-279h-800zM762 1599q-81 0 -134.5 49t-53.5 124q0 74 53.5 123t133.5 49q82 0 135 -49t53 -124q0 -74 -53 -123
t-134 -49z" />
    <glyph glyph-name="uni0227" unicode="&#x227;" horiz-adv-x="1171" 
d="M421 -19q-106 0 -188 35t-128.5 105.5t-46.5 176.5q0 91 32 152t89 99t131.5 58t158.5 27q95 8 152 18t82 27.5t25 49.5v6q0 33 -18 57t-51 37.5t-79 13.5q-47 0 -83 -14t-57 -40.5t-26 -62.5l-319 9q11 111 71 190.5t167 122.5t257 43q113 0 202 -24.5t151.5 -72
t95 -116t32.5 -156.5v-722h-334v150h-6q-31 -57 -74.5 -94.5t-101.5 -56t-134 -18.5zM526 208q58 0 104.5 22t73.5 61.5t27 92.5v98q-14 -6 -33.5 -12t-44 -11.5t-52.5 -10.5t-58 -10q-47 -7 -82.5 -22.5t-55.5 -40.5t-20 -61q0 -33 18 -57t49.5 -36.5t73.5 -12.5zM581 1179
q-81 0 -134.5 49t-53.5 124q0 74 53.5 123t133.5 49q82 0 135 -49t53 -124q0 -74 -53 -123t-134 -49z" />
    <glyph glyph-name="uni0228" unicode="&#x228;" horiz-adv-x="1264" 
d="M101 0v1490h1093v-302h-735v-292h678v-293h-678v-301h734v-302h-1092zM513 -418v129h121q43 0 64 14.5t21 43.5q0 28 -21 42.5t-64 14.5h-86l39 216h127v-42l-2 -80q91 1 141 -44.5t50 -118.5q0 -87 -62 -131t-180 -44h-148z" />
    <glyph glyph-name="uni0229" unicode="&#x229;" horiz-adv-x="1184" 
d="M605 -23q-165 0 -288.5 70t-191.5 196t-68 291q0 164 68 289.5t189.5 197t280.5 71.5q119 0 217 -39.5t169.5 -112t111 -173.5t39.5 -225v-92h-961v205h798l-158 -43q0 70 -25 120.5t-71.5 78t-112.5 27.5q-65 0 -111.5 -27.5t-71.5 -77.5t-25 -120v-150
q0 -74 26.5 -127.5t76.5 -81.5t119 -28q50 0 89.5 14t66.5 39.5t40 60.5l310 -11q-21 -104 -93 -183.5t-181 -124t-243 -44.5zM466 -418v129h121q43 0 64 14.5t21 43.5q0 28 -21 42.5t-64 14.5h-86l39 216h127v-42l-2 -80q91 1 141 -44.5t50 -118.5q0 -87 -62 -131t-180 -44
h-148z" />
    <glyph glyph-name="uni022A" unicode="&#x22a;" horiz-adv-x="1541" 
d="M771 -23q-202 0 -363.5 91t-255 262.5t-93.5 413.5q0 244 93.5 416t255 262.5t363.5 90.5q201 0 362 -90.5t255.5 -262.5t94.5 -416q0 -243 -94.5 -414.5t-255.5 -262t-362 -90.5zM771 290q107 0 185.5 53t121.5 155t43 246q0 145 -43 247.5t-121.5 155.5t-185.5 53
t-185.5 -53t-121.5 -155.5t-43 -247.5q0 -144 43 -246t121.5 -155t185.5 -53zM988 1590q-76 0 -126.5 48t-50.5 120q0 73 50.5 120.5t126.5 47.5t126 -47.5t50 -120.5q0 -72 -50 -120t-126 -48zM533 1590q-77 0 -127 48t-50 120q0 73 50 120.5t127 47.5q76 0 126 -47.5
t50 -120.5q0 -72 -50 -120t-126 -48zM1065 2212v-184h-588v184h588z" />
    <glyph glyph-name="uni022B" unicode="&#x22b;" horiz-adv-x="1227" 
d="M614 -23q-168 0 -293.5 69t-194.5 194t-69 294q0 168 69 293t194.5 195t293.5 70t293 -70t194 -195t69 -293q0 -169 -69 -294t-194 -194t-293 -69zM614 249q61 0 107.5 34t72.5 98t26 153q0 91 -26 154t-72.5 97t-107.5 34q-62 0 -109 -33.5t-72.5 -97t-25.5 -154.5
q0 -90 25.5 -153.5t72.5 -97.5t109 -34zM830 1170q-76 0 -126.5 48t-50.5 120q0 73 50.5 120.5t126.5 47.5t126 -47.5t50 -120.5q0 -72 -50 -120t-126 -48zM375 1170q-77 0 -127 48t-50 120q0 73 50 120.5t127 47.5q76 0 126 -47.5t50 -120.5q0 -72 -50 -120t-126 -48z
M907 1792v-184h-588v184h588z" />
    <glyph glyph-name="uni022C" unicode="&#x22c;" horiz-adv-x="1541" 
d="M771 -23q-202 0 -363.5 91t-255 262.5t-93.5 413.5q0 244 93.5 416t255 262.5t363.5 90.5q201 0 362 -90.5t255.5 -262.5t94.5 -416q0 -243 -94.5 -414.5t-255.5 -262t-362 -90.5zM771 290q107 0 185.5 53t121.5 155t43 246q0 145 -43 247.5t-121.5 155.5t-185.5 53
t-185.5 -53t-121.5 -155.5t-43 -247.5q0 -144 43 -246t121.5 -155t185.5 -53zM914 1622q-52 0 -90.5 17t-67.5 39t-54 38.5t-51 16.5q-33 0 -50.5 -27.5t-19.5 -76.5h-180q3 142 66 214.5t160 72.5q52 0 90.5 -16.5t67.5 -38t54 -37.5t51 -16q38 0 54.5 26t18.5 76h177
q-2 -139 -66.5 -213.5t-159.5 -74.5zM1066 2212v-184h-589v184h589z" />
    <glyph glyph-name="uni022D" unicode="&#x22d;" horiz-adv-x="1227" 
d="M614 -23q-168 0 -293.5 69t-194.5 194t-69 294q0 168 69 293t194.5 195t293.5 70t293 -70t194 -195t69 -293q0 -169 -69 -294t-194 -194t-293 -69zM614 249q61 0 107.5 34t72.5 98t26 153q0 91 -26 154t-72.5 97t-107.5 34q-62 0 -109 -33.5t-72.5 -97t-25.5 -154.5
q0 -90 25.5 -153.5t72.5 -97.5t109 -34zM757 1202q-52 0 -90.5 17t-67.5 39t-54 38.5t-51 16.5q-33 0 -50.5 -27.5t-19.5 -76.5h-180q3 142 66 214.5t160 72.5q52 0 90.5 -16.5t67.5 -38t54 -37.5t51 -16q38 0 54.5 26t18.5 76h177q-2 -139 -66.5 -213.5t-159.5 -74.5z
M909 1792v-184h-589v184h589z" />
    <glyph glyph-name="uni022E" unicode="&#x22e;" horiz-adv-x="1541" 
d="M771 -23q-202 0 -363.5 91t-255 262.5t-93.5 413.5q0 244 93.5 416t255 262.5t363.5 90.5q201 0 362 -90.5t255.5 -262.5t94.5 -416q0 -243 -94.5 -414.5t-255.5 -262t-362 -90.5zM771 290q107 0 185.5 53t121.5 155t43 246q0 145 -43 247.5t-121.5 155.5t-185.5 53
t-185.5 -53t-121.5 -155.5t-43 -247.5q0 -144 43 -246t121.5 -155t185.5 -53zM770 1599q-81 0 -134.5 49t-53.5 124q0 74 53.5 123t133.5 49q82 0 135 -49t53 -124q0 -74 -53 -123t-134 -49z" />
    <glyph glyph-name="uni022F" unicode="&#x22f;" horiz-adv-x="1227" 
d="M614 -23q-168 0 -293.5 69t-194.5 194t-69 294q0 168 69 293t194.5 195t293.5 70t293 -70t194 -195t69 -293q0 -169 -69 -294t-194 -194t-293 -69zM614 249q61 0 107.5 34t72.5 98t26 153q0 91 -26 154t-72.5 97t-107.5 34q-62 0 -109 -33.5t-72.5 -97t-25.5 -154.5
q0 -90 25.5 -153.5t72.5 -97.5t109 -34zM613 1179q-81 0 -134.5 49t-53.5 124q0 74 53.5 123t133.5 49q82 0 135 -49t53 -124q0 -74 -53 -123t-134 -49z" />
    <glyph glyph-name="uni0230" unicode="&#x230;" horiz-adv-x="1541" 
d="M771 -23q-202 0 -363.5 91t-255 262.5t-93.5 413.5q0 244 93.5 416t255 262.5t363.5 90.5q201 0 362 -90.5t255.5 -262.5t94.5 -416q0 -243 -94.5 -414.5t-255.5 -262t-362 -90.5zM771 290q107 0 185.5 53t121.5 155t43 246q0 145 -43 247.5t-121.5 155.5t-185.5 53
t-185.5 -53t-121.5 -155.5t-43 -247.5q0 -144 43 -246t121.5 -155t185.5 -53zM771 1584q-81 0 -134.5 49.5t-53.5 123.5t53.5 123t133.5 49q82 0 135 -49t53 -124q0 -74 -53 -123t-134 -49zM1065 2212v-184h-589v184h589z" />
    <glyph glyph-name="uni0231" unicode="&#x231;" horiz-adv-x="1227" 
d="M614 -23q-168 0 -293.5 69t-194.5 194t-69 294q0 168 69 293t194.5 195t293.5 70t293 -70t194 -195t69 -293q0 -169 -69 -294t-194 -194t-293 -69zM614 249q61 0 107.5 34t72.5 98t26 153q0 91 -26 154t-72.5 97t-107.5 34q-62 0 -109 -33.5t-72.5 -97t-25.5 -154.5
q0 -90 25.5 -153.5t72.5 -97.5t109 -34zM613 1164q-81 0 -134.5 49.5t-53.5 123.5t53.5 123t133.5 49q82 0 135 -49t53 -124q0 -74 -53 -123t-134 -49zM907 1792v-184h-589v184h589z" />
    <glyph glyph-name="uni0232" unicode="&#x232;" horiz-adv-x="1472" 
d="M568 0v535l-554 955h412l235 -439q31 -59 59.5 -117.5t56.5 -122.5h-63q26 64 53 123t57 117l224 439h410l-541 -955v-535h-349zM1030 1871v-210h-588v210h588z" />
    <glyph glyph-name="uni0233" unicode="&#x233;" horiz-adv-x="1191" 
d="M125 -412l17 264l124 -3q42 -3 69 6.5t43 33.5t25 64l14 48l-409 1069h362l159 -500q31 -102 57.5 -205.5t53.5 -210.5h-92q26 107 53.5 211t60.5 205l163 500h358l-459 -1212q-35 -94 -84.5 -156t-119 -92t-166.5 -30q-58 0 -117.5 2t-111.5 6zM871 1451v-210h-588v210
h588z" />
    <glyph glyph-name="uni0234" unicode="&#x234;" horiz-adv-x="866" 
d="M535 -418q-152 0 -248 44.5t-141.5 130.5t-45.5 209v238h346v-326q0 -47 28 -71.5t70 -24.5q38 0 62.5 19t24.5 53q0 32 -24.5 53.5t-73.5 23.5q-30 1 -63 -8t-78 -35t-113 -74l-307 -233l-153 197l310 231q76 57 176 99t213 42q188 0 296 -88t108 -222
q0 -124 -99.5 -191t-287.5 -67zM446 1490v-1490h-346v1490h346z" />
    <glyph glyph-name="uni0235" unicode="&#x235;" horiz-adv-x="1567" 
d="M1236 -418q-152 0 -248 44.5t-141.5 130.5t-45.5 209v238h346v-326q0 -47 28 -71.5t70 -24.5q37 0 62 19t25 53q0 32 -24.5 53.5t-73.5 23.5q-30 1 -63 -8t-78 -35t-113 -74l-307 -233l-153 197l310 231q76 57 176 99t213 42q188 0 296 -88t108 -222q0 -124 -99.5 -191
t-287.5 -67zM446 588v-588h-346v1070h337l2 -283h-43q48 138 139.5 221t242.5 83q116 0 198 -50t126.5 -143.5t44.5 -223.5v-674h-346v604q0 94 -45.5 144t-128.5 50q-55 0 -96 -23t-63 -69.5t-22 -117.5z" />
    <glyph glyph-name="uni0236" unicode="&#x236;" horiz-adv-x="1022" 
d="M611 -20q-151 0 -247.5 44.5t-142 130.5t-45.5 209v239h346v-326q0 -48 28.5 -72.5t70.5 -24.5q37 0 62 19.5t25 52.5t-24.5 54.5t-73.5 22.5q-31 2 -64 -7.5t-77.5 -35.5t-112.5 -74l-308 -232l-153 196l311 231q76 57 175.5 99t213.5 42q188 0 295.5 -88t107.5 -222
q0 -124 -99 -191t-288 -67zM176 398v955h346v-955h-346zM19 805v265h717v-265h-717z" />
    <glyph glyph-name="uni0237" unicode="&#x237;" horiz-adv-x="547" 
d="M101 1070h346v-1131q0 -120 -46 -199t-135 -118.5t-220 -39.5h-120v267h64q60 0 85.5 28t25.5 91v1102z" />
    <glyph glyph-name="uni0238" unicode="&#x238;" horiz-adv-x="1947" 
d="M1839 564v-20q0 -166 -52 -293t-147.5 -199t-227.5 -72q-105 0 -181 43.5t-127 120t-82.5 177.5t-47.5 217v18q22 164 71 294.5t138 206t229 75.5q132 0 227.5 -71t147.5 -198.5t52 -298.5zM1503 544v20q0 91 -17.5 158.5t-59 105t-111.5 37.5q-99 0 -152 -74t-58 -208
v-69q8 -125 59.5 -195.5t150.5 -70.5q78 0 118 40t55 107.5t15 148.5zM805 250v1240h336v-1490h-303zM108 544v20q1 171 52.5 298.5t147.5 198.5t228 71q140 0 229 -75.5t137.5 -206t69.5 -294.5v-18q-15 -116 -46.5 -217t-83 -177.5t-127.5 -120t-181 -43.5
q-131 0 -226.5 72t-147 199t-52.5 293zM445 564v-20q0 -81 14.5 -148.5t55 -107.5t118.5 -40q99 0 150 70.5t58 195.5v69q-5 134 -57 208t-150 74q-71 0 -112.5 -37.5t-59 -105t-17.5 -158.5z" />
    <glyph glyph-name="uni0239" unicode="&#x239;" horiz-adv-x="1947" 
d="M805 -416v1305l42 229h270l24 -208v-1326h-336zM108 544v20q1 171 52.5 298.5t147.5 198.5t228 71q140 0 229 -75.5t137.5 -206t69.5 -294.5v-18q-15 -116 -46.5 -217t-83 -177.5t-127.5 -120t-181 -43.5q-131 0 -226.5 72t-147 199t-52.5 293zM445 564v-20
q0 -81 14.5 -148.5t55 -107.5t118.5 -40q99 0 150 70.5t58 195.5v69q-5 134 -57 208t-150 74q-71 0 -112.5 -37.5t-59 -105t-17.5 -158.5zM1839 564v-20q0 -166 -52 -293t-147.5 -199t-227.5 -72q-105 0 -181 43.5t-127 120t-82.5 177.5t-47.5 217v18q22 164 71 294.5
t138 206t229 75.5q132 0 227.5 -71t147.5 -198.5t52 -298.5zM1503 544v20q0 91 -17.5 158.5t-59 105t-111.5 37.5q-99 0 -152 -74t-58 -208v-69q8 -125 59.5 -195.5t150.5 -70.5q78 0 118 40t55 107.5t15 148.5z" />
    <glyph glyph-name="uni023A" unicode="&#x23a;" horiz-adv-x="1525" 
d="M1122 1678l-588 -1868h-99l588 1868h99zM14 0l509 1490h474l514 -1490h-401l-203 654q-49 164 -96.5 334.5t-97.5 366.5h94q-51 -196 -98 -366.5t-97 -334.5l-207 -654h-391zM363 293v279h800v-279h-800z" />
    <glyph glyph-name="uni023B" unicode="&#x23b;" horiz-adv-x="1498" 
d="M373 -190l587 1868h198l-589 -1868h-196zM772 -23q-203 0 -364.5 90.5t-255 262.5t-93.5 414q0 244 93.5 416t255 262.5t364.5 90.5q136 0 251 -39.5t203 -113t144 -177t72 -232.5h-362q-10 59 -36 105t-65 78t-89.5 49t-110.5 17q-114 0 -194 -54.5t-122 -156.5
t-42 -245t42 -244.5t122 -155.5t193 -54q61 0 111 16.5t89 49t65 78t38 104.5h361q-15 -122 -69 -224.5t-141.5 -178t-203.5 -117t-256 -41.5z" />
    <glyph glyph-name="uni023C" unicode="&#x23c;" horiz-adv-x="1177" 
d="M241 -418l557 1908h178l-557 -1908h-178zM606 -23q-166 0 -289.5 70t-191.5 195.5t-68 291.5t68 291.5t191.5 196t289.5 70.5q110 0 201.5 -31.5t159.5 -88.5t108.5 -135.5t47.5 -174.5l-329 -12q-6 39 -20.5 70.5t-37.5 53.5t-54.5 34t-69.5 12q-65 0 -111 -34.5
t-70 -98.5t-24 -153q0 -88 24 -152.5t70.5 -99t110.5 -34.5q38 0 69.5 12t54.5 34.5t37.5 55t19.5 72.5l330 -11q-5 -97 -44.5 -176t-108 -137t-161 -89.5t-203.5 -31.5z" />
    <glyph glyph-name="uni023D" unicode="&#x23d;" horiz-adv-x="1266" 
d="M208 0v1490h358v-1188h652v-302h-1010zM23 629v232h832v-232h-832z" />
    <glyph glyph-name="uni023E" unicode="&#x23e;" horiz-adv-x="1336" 
d="M201 -209l759 1908h178l-759 -1908h-178zM48 1188v302h1240v-302h-441v-1188h-358v1188h-441z" />
    <glyph glyph-name="uni023F" unicode="&#x23f;" horiz-adv-x="1119" 
d="M322 300q82 -162 136.5 -259.5t92 -147t68.5 -66t65 -16.5q68 0 117 26.5t85 55.5l100 -173q-55 -46 -132 -92t-182 -46q-98 0 -168.5 44t-122 110.5t-92.5 136.5l-179 308zM568 -25q-146 0 -258.5 43.5t-180 124t-79.5 191.5l336 11q11 -61 56.5 -96t123.5 -35
q72 0 112.5 25t40.5 66q0 35 -33 57t-97 34l-192 35q-159 29 -240.5 108t-81.5 205q0 106 57.5 183.5t164.5 120t255 42.5q147 0 254 -43t168 -121.5t67 -187.5l-315 -11q-4 55 -49 90.5t-114 35.5q-66 0 -105 -26t-39 -65q0 -34 29.5 -56.5t87.5 -34.5l212 -38
q165 -31 243 -102t78 -189q0 -110 -63 -192.5t-176.5 -128.5t-261.5 -46z" />
    <glyph glyph-name="uni0240" unicode="&#x240;" horiz-adv-x="1126" 
d="M101 0v220l506 578v3h-502v269h909v-236l-489 -563v-271h-424zM1143 -420q-102 0 -184 38t-145.5 116t-110.5 199q-15 27 -28.5 42t-30 20t-42.5 5h-146v267h196q73 0 126 -19.5t92.5 -65t72.5 -122.5q28 -71 57.5 -118.5t64 -70.5t78.5 -23q31 0 70.5 12.5t76.5 32.5
l114 -237q-62 -35 -126 -55.5t-135 -20.5z" />
    <glyph glyph-name="uni0241" unicode="&#x241;" horiz-adv-x="1168" 
d="M441 529h126q74 0 113 34.5t53.5 94.5t14.5 138v160q0 55 -11 117.5t-49 107.5t-121 45q-85 0 -126.5 -49t-41.5 -119h-331q-1 139 64 240t177 156.5t250 55.5q173 0 293.5 -73t184 -198t63.5 -283v-160q0 -157 -63 -280.5t-184 -195.5t-295 -72h-117v281zM756 529v-529
h-351v529h351z" />
    <glyph glyph-name="uni0242" unicode="&#x242;" horiz-adv-x="1170" 
d="M111 685q0 137 59.5 237t166 155t246.5 55q219 0 347.5 -114.5t128.5 -313.5q0 -117 -47 -203t-137.5 -132.5t-224.5 -46.5h-183v179h71q96 0 141 49t45 147q0 80 -32 124t-105 44t-106.5 -44.5t-33.5 -135.5h-336zM419 501h335v-501h-335v501z" />
    <glyph glyph-name="uni0243" unicode="&#x243;" horiz-adv-x="1388" 
d="M156 0v1490h619q166 0 279.5 -48t172 -133t58.5 -197q0 -85 -35 -153t-97 -112.5t-146 -62.5v-5q93 -6 168 -51t119 -123.5t44 -184.5q0 -122 -60 -217t-176 -149t-282 -54h-664zM507 278h249q102 0 158.5 45.5t56.5 125.5q0 55 -25.5 95.5t-73 62.5t-113.5 22h-252v-351
zM507 883h228q58 0 101 20t66 57.5t23 87.5q0 76 -50.5 120.5t-137.5 44.5h-230v-330zM10 384v138h704v-138h-704z" />
    <glyph glyph-name="uni0244" unicode="&#x244;" horiz-adv-x="1536" 
d="M1562 841v-196h-1588v196h1588zM774 -23q-190 0 -331 68.5t-219 192t-78 287.5v965h351v-935q0 -79 35 -140t97 -96t145 -35t145 35t96.5 95.5t34.5 140.5v935h351v-965q0 -164 -78 -287.5t-219 -192t-330 -68.5z" />
    <glyph glyph-name="uni0245" unicode="&#x245;" horiz-adv-x="1554" 
d="M1091 0l-329 1138l-52 352h253l514 -1490h-386zM792 1138l-331 -1138h-386l513 1490h253z" />
    <glyph glyph-name="uni0246" unicode="&#x246;" horiz-adv-x="1264" 
d="M307 -190l540 1868h164l-538 -1868h-166zM101 0v1490h1093v-302h-735v-292h678v-293h-678v-301h734v-302h-1092z" />
    <glyph glyph-name="uni0247" unicode="&#x247;" horiz-adv-x="1184" 
d="M221 -418l626 1908h137l-626 -1908h-137zM605 -23q-165 0 -288.5 70t-191.5 196t-68 291q0 164 68 289.5t189.5 197t280.5 71.5q119 0 217 -39.5t169.5 -112t111 -173.5t39.5 -225v-92h-961v205h798l-158 -43q0 70 -25 120.5t-71.5 78t-112.5 27.5q-65 0 -111.5 -27.5
t-71.5 -77.5t-25 -120v-150q0 -74 26.5 -127.5t76.5 -81.5t119 -28q50 0 89.5 14t66.5 39.5t40 60.5l310 -11q-21 -104 -93 -183.5t-181 -124t-243 -44.5z" />
    <glyph glyph-name="uni0248" unicode="&#x248;" horiz-adv-x="1270" 
d="M563 -22q-241 0 -375.5 125t-134.5 358v104h339v-108q0 -90 44 -137t123 -47q78 0 122 47t44 137v1033h357v-1036q0 -229 -136.5 -352.5t-382.5 -123.5zM551 815v138h704v-138h-704z" />
    <glyph glyph-name="uni0249" unicode="&#x249;" horiz-adv-x="547" 
d="M101 1070h346v-1131q0 -120 -46 -199t-135 -118.5t-220 -39.5h-120v267h64q60 0 85.5 28t25.5 91v1102zM-125 578v198h795v-198h-795zM274 1179q-81 0 -134.5 49t-53.5 124q0 74 53.5 123t133.5 49q82 0 135 -49t53 -124q0 -74 -53 -123t-134 -49z" />
    <glyph glyph-name="Q_rthook" unicode="&#x24a;" horiz-adv-x="1554" 
d="M1453 1490v-1490h-345v211h-4q-60 -108 -167.5 -170t-250.5 -62q-137 0 -252 57t-199 160t-130 242.5t-46 306.5q0 166 46.5 305.5t131 242.5t199 160.5t250.5 57.5q141 0 249 -62t169 -169h4v210h345zM761 288q110 0 187.5 54.5t118 157t40.5 244.5q0 145 -40.5 247
t-117.5 157t-187 55q-108 0 -185 -55t-118 -157.5t-41 -246.5t41 -246t117.5 -156t184.5 -54zM1486 -422q-194 0 -286 87t-92 259v76h345v-63q0 -46 23 -67.5t74 -21.5q35 0 68.5 0.5t52.5 1.5v-268q-31 -2 -79 -3t-106 -1z" />
    <glyph glyph-name="qrthook" unicode="&#x24b;" horiz-adv-x="1260" 
d="M1193 -422q-194 0 -284.5 87t-90.5 259v270h342v-257q0 -46 22.5 -67.5t73.5 -21.5q36 0 69 0.5t53 1.5v-268q-32 -2 -80 -3t-105 -1zM511 -22q-134 0 -236.5 68t-160 193t-57.5 297q0 170 58.5 294.5t161 192.5t232.5 68q73 0 131.5 -21t102 -59t73.5 -91h5v150h339
v-1070h-339v162h-5q-26 -57 -69.5 -98t-103 -63.5t-132.5 -22.5zM613 253q66 0 114.5 35t75.5 98.5t27 149.5t-27 149t-75.5 97.5t-114.5 34.5q-64 0 -110 -34t-71 -96.5t-25 -150.5q0 -87 25 -150.5t71 -98t110 -34.5z" />
    <glyph glyph-name="uni024C" unicode="&#x24c;" horiz-adv-x="1368" 
d="M347 539h-348v257h348v-257zM138 0v1490h614q171 0 296 -61t193 -173.5t68 -267.5q0 -151 -70.5 -261t-199.5 -169t-305 -59h-379v282h361q75 0 128 25t81.5 71.5t28.5 110.5q0 65 -28.5 111.5t-82 72t-128.5 25.5h-219v-1197h-358zM970 0l-340 676h374l347 -676h-381z
" />
    <glyph glyph-name="uni024D" unicode="&#x24d;" horiz-adv-x="818" 
d="M100 0v1070h335v-190h4q30 103 93 149.5t166 46.5q27 0 50.5 -1t44.5 -3v-288q-20 2 -60 4t-76 2q-62 0 -110 -28t-74.5 -80t-26.5 -126v-556h-346zM-125 432v198h795v-198h-795z" />
    <glyph glyph-name="uni024E" unicode="&#x24e;" horiz-adv-x="1488" 
d="M1480 1178v-173h-1474v173h1474zM568 0v535l-554 955h412l235 -439q31 -59 59.5 -117.5t56.5 -122.5h-63q26 64 53 123t57 117l224 439h410l-541 -955v-535h-349z" />
    <glyph glyph-name="uni024F" unicode="&#x24f;" horiz-adv-x="1203" 
d="M1188 742v-163h-1174v163h1174zM131 -412l17 264l124 -3q42 -3 69 6.5t43 33.5t25 64l13 48l-408 1069h362l158 -500q32 -102 58.5 -205.5t53.5 -210.5h-92q26 107 53.5 211t59.5 205l164 500h358l-459 -1212q-35 -94 -84.5 -156t-119 -92t-166.5 -30q-58 0 -117.5 2
t-111.5 6z" />
    <glyph glyph-name="aturn" unicode="&#x250;" horiz-adv-x="1171" 
d="M750 1088q106 0 188 -34.5t129 -105t47 -177.5q0 -89 -32.5 -150.5t-89 -100t-131 -58t-158.5 -27.5q-95 -7 -152 -17t-82.5 -27.5t-25.5 -50.5v-5q0 -33 18 -57.5t51.5 -38t78.5 -13.5q49 0 84 14.5t56.5 41t25.5 61.5l319 -9q-10 -110 -70.5 -189.5t-167.5 -122.5
t-257 -43q-112 0 -201.5 24.5t-152 72t-95 116t-32.5 156.5v722h335v-150h5q31 57 74.5 94.5t102.5 55.5t133 18zM645 861q-57 0 -104 -21.5t-74 -61t-27 -92.5v-98q14 6 33.5 12t44 11.5t52.5 10t58 9.5q47 8 83 23.5t56 40.5t20 61q0 33 -18 57t-49.5 36t-74.5 12z" />
    <glyph glyph-name="ascript" unicode="&#x251;" horiz-adv-x="1260" 
d="M511 -22q-134 0 -236.5 68t-160 193t-57.5 297q0 170 58.5 294.5t161 192.5t232.5 68q73 0 131.5 -21t102 -59t73.5 -91h5v150h339v-1070h-339v162h-5q-26 -57 -69.5 -98t-103 -63.5t-132.5 -22.5zM613 253q66 0 114.5 35t75.5 98.5t27 149.5t-27 149t-75.5 97.5
t-114.5 34.5q-64 0 -110 -34t-71 -96.5t-25 -150.5q0 -87 25 -150.5t71 -98t110 -34.5z" />
    <glyph glyph-name="ascriptturn" unicode="&#x252;" horiz-adv-x="1260" 
d="M749 -22q-73 0 -132.5 22.5t-103 63.5t-69.5 98h-5v-162h-339v1070h339v-150h5q30 53 73.5 91t102.5 59t131 21q131 0 232.5 -68t160.5 -192.5t59 -294.5q0 -172 -57.5 -297t-159.5 -193t-237 -68zM647 253q64 0 110 34.5t71 98t25 150.5q0 88 -25 150.5t-71 96.5
t-110 34q-65 0 -114 -34.5t-76 -97.5t-27 -149t27 -149.5t76 -98.5t114 -35z" />
    <glyph glyph-name="uni0253" unicode="&#x253;" horiz-adv-x="1263" 
d="M751 -22q-73 0 -132 22.5t-102.5 63.5t-69.5 98h-6v-162h-341v1070h345v-170l5 6q30 51 73 88.5t100.5 58t130.5 20.5q131 0 232.5 -67t160.5 -188.5t59 -287.5q0 -168 -57.5 -292.5t-159.5 -192t-238 -67.5zM650 253q65 0 110.5 33.5t70.5 95.5t25 148t-24.5 147.5
t-70.5 95t-111 33.5t-114 -34t-76.5 -95.5t-27.5 -146.5q0 -84 27.5 -146.5t76.5 -96.5t114 -34zM100 840v306q0 174 94 260.5t287 86.5q58 0 106 -1t80 -3v-268q-20 1 -53 1.5t-69 0.5q-51 0 -75 -21.5t-24 -68.5v-293h-346z" />
    <glyph glyph-name="uni0254" unicode="&#x254;" horiz-adv-x="1165" 
d="M85 390h313q0 -46 20.5 -77.5t58 -48t89.5 -16.5q80 0 118 41t49.5 107.5t11.5 143.5v27q1 69 -10 138t-49.5 114.5t-120.5 45.5q-86 0 -126 -53.5t-41 -145.5h-313q0 153 61 256.5t167.5 156.5t245.5 53q172 0 288.5 -73t174.5 -200.5t58 -291.5v-27q1 -162 -58 -288.5
t-176 -199t-289 -72.5q-134 0 -241 50.5t-169 143t-62 216.5z" />
    <glyph glyph-name="drthook" unicode="&#x256;" horiz-adv-x="1263" 
d="M1195 -422q-193 0 -284 87t-91 259v270h342v-257q0 -46 23 -67.5t74 -21.5q36 0 69 0.5t53 1.5v-268q-32 -2 -80 -3t-106 -1zM511 -22q-134 0 -237 68t-160 193t-57 297q0 170 58.5 294.5t161 192.5t231.5 68q74 0 131.5 -21t101 -59.5t74.5 -94.5h2v574h346v-1490h-342
v167h-3q-26 -59 -70 -101.5t-103.5 -65t-133.5 -22.5zM613 253q65 0 114 35t76 98.5t27 149.5t-27 149t-76 97.5t-114 34.5q-64 0 -110.5 -34t-71 -97t-24.5 -150t25 -150.5t71 -98t110 -34.5z" />
    <glyph glyph-name="uni0257" unicode="&#x257;" horiz-adv-x="1260" 
d="M814 840v306q0 174 94 260.5t288 86.5q57 0 105 -1t80 -3v-268q-20 1 -53 1.5t-69 0.5q-51 0 -75 -21.5t-24 -68.5v-293h-346zM511 -22q-134 0 -236.5 68t-160 193t-57.5 297q0 170 58.5 294.5t161 192.5t232.5 68q73 0 131.5 -21t102 -59t73.5 -91h5v150h339v-1070h-339
v162h-5q-26 -57 -69.5 -98t-103 -63.5t-132.5 -22.5zM613 253q66 0 114.5 35t75.5 98.5t27 149.5t-27 149t-75.5 97.5t-114.5 34.5q-64 0 -110 -34t-71 -96.5t-25 -150.5q0 -87 25 -150.5t71 -98t110 -34.5z" />
    <glyph glyph-name="erev" unicode="&#x258;" horiz-adv-x="1164" 
d="M535 -20q-159 0 -273 56.5t-174 132.5l159 187q51 -60 120.5 -84t134.5 -24q127 0 196.5 70.5t69.5 201.5v38q0 50 -7 103.5t-28 100t-61.5 75t-106.5 28.5q-78 0 -127 -47t-52 -142v-14h583v-214h-908v140q1 258 135.5 401t366.5 143q179 0 299 -77t181 -207t61 -290
v-38q1 -148 -67 -271t-195.5 -196t-306.5 -73z" />
    </font>
</defs>
</svg>
