<?xml version="1.0" standalone="no"?>
<!DOCTYPE svg PUBLIC "-//W3C//DTD SVG 1.1//EN" "http://www.w3.org/Graphics/SVG/1.1/DTD/svg11.dtd" >
<svg xmlns="http://www.w3.org/2000/svg" xmlns:xlink="http://www.w3.org/1999/xlink" version="1.1">
<metadata></metadata>
<defs>
<font id="sangbleu_sansbold" horiz-adv-x="628" >
<font-face units-per-em="2048" ascent="1638" descent="-410" />
<missing-glyph horiz-adv-x="450" />
<glyph horiz-adv-x="0" />
<glyph horiz-adv-x="682" />
<glyph unicode=" "  horiz-adv-x="450" />
<glyph unicode="&#x09;" horiz-adv-x="450" />
<glyph unicode="&#xa0;" horiz-adv-x="450" />
<glyph unicode="!" horiz-adv-x="716" d="M158 172q0 83 58.5 142t141.5 59t142 -59t59 -142t-59 -142t-142 -59t-141.5 59t-58.5 142zM170 1606q77 28 184 28q108 0 185 -28q-9 -219 -31 -387.5t-45.5 -258t-51.5 -222.5t-44 -271h-25q-14 139 -42 271.5t-52.5 222.5t-47 258.5t-30.5 386.5z" />
<glyph unicode="&#x22;" horiz-adv-x="815" d="M96 1612h273l-72 -451h-129zM446 1612h273l-72 -451h-129z" />
<glyph unicode="#" horiz-adv-x="1384" d="M96 440l17 121h264l63 443h-264l17 120h264l69 488h127l-69 -488h319l70 488h127l-70 -488h258l-16 -120h-258l-64 -443h258l-18 -121h-256l-64 -440h-129l64 440h-318l-63 -440h-127l63 440h-264zM504 561h317l64 443h-318z" />
<glyph unicode="$" horiz-adv-x="1323" d="M117 82v465h26q60 -233 168 -357.5t285 -128.5v566l-88 28q-104 34 -180.5 85.5t-119.5 113.5t-63 127.5t-20 138.5q0 116 63.5 204.5t169 136t238.5 55.5v210h80v-208q263 -3 454 -101v-418h-26q-125 431 -428 431v-482l137 -45q68 -23 123 -48.5t112.5 -66.5 t96.5 -89.5t63.5 -118.5t24.5 -152q0 -109 -44.5 -196t-122 -141.5t-176.5 -84t-214 -33.5v-184h-80v182q-297 11 -479 111zM356 1241q0 -89 55 -151.5t185 -112.5v448q-119 -12 -179.5 -61.5t-60.5 -122.5zM676 63q148 11 224.5 72.5t76.5 186.5q0 56 -22.5 100t-67.5 77 t-93.5 55.5t-117.5 45.5v-537z" />
<glyph unicode="%" horiz-adv-x="1888" d="M70 1155q0 199 103 319.5t261 120.5t261.5 -120.5t103.5 -319.5q0 -200 -103.5 -323t-261.5 -123t-261 123t-103 323zM256 1155q0 -191 39 -287t139 -96q52 0 87 26t54 78t27 118.5t8 160.5q0 92 -8 157.5t-27 117.5t-54 78t-87 26t-87.5 -26t-55 -77.5t-27.5 -118 t-8 -157.5zM367 0l1024 1538h131l-1024 -1538h-131zM1090 420q0 199 103 319.5t261 120.5t261.5 -120.5t103.5 -319.5q0 -200 -103.5 -323.5t-261.5 -123.5t-261 123.5t-103 323.5zM1276 420q0 -92 8 -159t27.5 -120t55 -79.5t87.5 -26.5t87 26.5t54 79.5t27 119.5t8 159.5 q0 91 -8 156.5t-27 117t-54 77.5t-87 26q-100 0 -139 -95t-39 -282z" />
<glyph unicode="&#x26;" horiz-adv-x="1757" d="M94 430q0 160 124.5 277.5t348.5 171.5q-70 -60 -107.5 -154.5t-37.5 -200.5q0 -78 22 -148.5t63.5 -127t109 -90t151.5 -33.5q192 0 340 156l-530 591q-203 221 -203 412q0 152 131 253t328 101q86 0 161 -16.5t137 -51t98 -94t36 -137.5q0 -117 -100 -200.5 t-289 -124.5l409 -457q79 178 135 428h133q-74 -320 -182 -526l412 -459h-424l-172 193q-208 -222 -535 -222q-129 0 -236.5 38t-177 102t-107.5 146t-38 173zM666 1376q0 -43 14.5 -86.5t44 -88t54 -74.5t63.5 -74l35 -39q58 24 96.5 118t38.5 199q0 101 -43 163t-135 62 q-77 0 -122.5 -50.5t-45.5 -129.5z" />
<glyph unicode="'" horiz-adv-x="464" d="M96 1612h273l-72 -451h-129z" />
<glyph unicode="(" horiz-adv-x="610" d="M123 559q0 302 93.5 577t248.5 476h135q-162 -208 -254 -485t-92 -568q0 -293 92 -570t254 -485h-135q-155 201 -248.5 477.5t-93.5 577.5z" />
<glyph unicode=")" horiz-adv-x="610" d="M10 -496q162 208 254 485t92 570q0 291 -92 568t-254 485h135q155 -201 248.5 -476t93.5 -577q0 -301 -93.5 -577.5t-248.5 -477.5h-135z" />
<glyph unicode="*" horiz-adv-x="698" d="M41 1364l31 100l223 -78v226h104v-226l226 76l34 -98l-225 -74l137 -190l-82 -62l-141 193l-137 -191l-86 60l137 188z" />
<glyph unicode="+" horiz-adv-x="1175" d="M57 455v123h455v434h131v-434h453v-123h-453v-455h-131v455h-455z" />
<glyph unicode="," horiz-adv-x="634" d="M117 172q0 85 57 143t143 58q91 0 146 -59.5t55 -157.5q0 -80 -38 -168t-111 -165.5t-164 -117.5l-6 14q45 34 77.5 116.5t32.5 146.5q-87 0 -139.5 52.5t-52.5 137.5z" />
<glyph unicode="-" horiz-adv-x="718" d="M96 436v166h527v-166h-527z" />
<glyph unicode="." horiz-adv-x="634" d="M117 172q0 83 58.5 142t141.5 59t142 -59t59 -142t-59 -142t-142 -59t-141.5 59t-58.5 142z" />
<glyph unicode="/" horiz-adv-x="897" d="M-6 -135l786 1845h123l-786 -1845h-123z" />
<glyph unicode="0" horiz-adv-x="1462" d="M86 743q0 364 174 567t471 203t471 -203t174 -567q0 -365 -174 -568.5t-471 -203.5t-471 203.5t-174 568.5zM426 743q0 -155 18 -277.5t47 -200t69.5 -128.5t82.5 -71.5t88 -20.5t88 20.5t82.5 71.5t69.5 128.5t47 200t18 277.5t-18 277.5t-47 199.5t-69.5 128 t-82.5 71.5t-88 20.5t-88 -20.5t-82.5 -71.5t-69.5 -128t-47 -199.5t-18 -277.5z" />
<glyph unicode="1" horiz-adv-x="831" d="M35 1319v24q149 13 306.5 57.5t238.5 106.5h32v-1507h-311v1280q-93 0 -266 39z" />
<glyph unicode="2" horiz-adv-x="1253" d="M-20 0v27q104 84 201.5 172t210 208t194.5 233t137 239.5t55 234.5q0 132 -76 199t-190 67q-143 0 -238.5 -86t-107.5 -225h-37q0 191 138 317.5t378 126.5q204 0 334.5 -96t130.5 -270q0 -120 -61.5 -239t-179 -232.5t-254.5 -213t-322 -210.5h811v-252h-1124z" />
<glyph unicode="3" horiz-adv-x="1257" d="M41 262q0 58 34.5 89.5t90.5 31.5q43 0 74.5 -25t48 -62.5t37 -81.5t40 -81.5t58 -62.5t90.5 -25q102 0 173.5 49.5t104.5 130.5t33 185q0 83 -29.5 149t-78.5 105t-108.5 59t-123.5 20q-104 0 -200 -45v39q202 113 326 236.5t124 236.5q0 86 -62.5 132.5t-170.5 46.5 q-71 0 -135.5 -21.5t-126 -76t-97.5 -136.5l-32 12q54 170 197 258t315 88q196 0 316 -69t120 -184q0 -126 -93.5 -204.5t-299.5 -109.5q245 -44 367 -172t122 -305q0 -99 -43 -188.5t-122.5 -158.5t-202.5 -110t-271 -41q-118 0 -229.5 43t-178.5 111t-67 137z" />
<glyph unicode="4" horiz-adv-x="1402" d="M14 352v49l979 1155h35v-948h313v-256h-313v-352h-311v352h-703zM311 608h406v484z" />
<glyph unicode="5" horiz-adv-x="1337" d="M82 260q0 49 33 86t92 37q45 0 78 -18.5t52.5 -48.5t36.5 -66t36.5 -72t44.5 -66t69 -48.5t103 -18.5q51 0 97.5 21.5t86.5 64t64 117t24 170.5q0 181 -98.5 278t-247.5 97q-55 0 -109 -13t-118.5 -53t-110.5 -104l-70 4l177 848h852l-37 -269h-775l-75 -348 q55 58 155 89.5t232 31.5q129 0 236 -37.5t177.5 -101.5t109 -149.5t38.5 -182.5q0 -234 -178.5 -385.5t-454.5 -151.5q-130 0 -251 41t-195 108.5t-74 139.5z" />
<glyph unicode="6" horiz-adv-x="1353" d="M92 578q0 183 77 345.5t216.5 289t326 221.5t412.5 155l13 -30q-276 -118 -440 -296.5t-238 -437.5q58 82 145 125t184 43q71 0 138 -18t129.5 -57.5t109.5 -97t75 -143.5t28 -190q0 -103 -43.5 -197t-121 -164.5t-191.5 -112.5t-246 -42q-177 0 -307.5 76.5 t-198.5 213.5t-68 317zM420 479q0 -86 12 -158.5t38.5 -137t77.5 -101.5t122 -37q130 0 196 116t66 320q0 400 -248 400q-132 0 -198 -104.5t-66 -297.5z" />
<glyph unicode="7" horiz-adv-x="1269" d="M-4 2l1083 1204h-942v269h1137l16 -29l-1011 -1630z" />
<glyph unicode="8" horiz-adv-x="1388" d="M96 365q0 131 106.5 230t299.5 140l-15 8q-162 95 -238.5 193.5t-76.5 224.5q0 114 76 199t193 125.5t255 40.5q149 0 269.5 -37.5t191 -107t70.5 -158.5q0 -68 -36.5 -125.5t-97.5 -97t-131.5 -66t-148.5 -39.5l168 -96q159 -89 235 -185t76 -221q0 -184 -158.5 -303 t-443.5 -119q-270 0 -432 108t-162 286zM332 379q0 -63 21 -118t63 -100t113 -71.5t163 -26.5q150 0 242 63t92 167q0 45 -21 86t-64.5 79.5t-86.5 67.5t-109 68l-239 139q-174 -124 -174 -354zM426 1235q0 -34 11.5 -64t28 -51.5t52 -48t65 -44.5t85.5 -50l143 -82 q180 99 180 285q0 119 -77.5 186.5t-217.5 67.5q-114 0 -192 -51.5t-78 -147.5z" />
<glyph unicode="9" horiz-adv-x="1318" d="M72 995q0 103 43.5 197t121 164.5t191.5 112.5t246 42q267 0 420 -166t153 -440q0 -183 -77 -345t-216.5 -288.5t-326 -222t-412.5 -155.5l-12 30q276 118 440 296.5t238 436.5q-58 -82 -145.5 -125t-184.5 -43q-71 0 -138 18t-129.5 57.5t-109 97t-74.5 143.5t-28 190z M408 1001q0 -399 247 -399q132 0 198.5 104.5t66.5 297.5q0 86 -12 158.5t-38.5 137t-77.5 101.5t-122 37q-130 0 -196 -116.5t-66 -320.5z" />
<glyph unicode=":" horiz-adv-x="716" d="M158 172q0 83 58.5 142t141.5 59t142 -59t59 -142t-59 -142t-142 -59t-141.5 59t-58.5 142zM158 848q0 83 58.5 142t141.5 59t142 -59t59 -142t-59 -142t-142 -59t-141.5 59t-58.5 142z" />
<glyph unicode=";" horiz-adv-x="716" d="M158 172q0 85 57 143t143 58q91 0 146 -59.5t55 -157.5q0 -80 -38 -168t-111 -165.5t-164 -117.5l-6 14q45 34 77.5 116.5t32.5 146.5q-87 0 -139.5 52.5t-52.5 137.5zM158 848q0 83 58.5 142t141.5 59t142 -59t59 -142t-59 -142t-142 -59t-141.5 59t-58.5 142z" />
<glyph unicode="&#x3c;" horiz-adv-x="1110" d="M57 455v120l977 445v-141l-821 -365l821 -360v-142z" />
<glyph unicode="=" horiz-adv-x="1056" d="M76 266v125h905v-125h-905zM76 655v123h905v-123h-905z" />
<glyph unicode="&#x3e;" horiz-adv-x="1110" d="M76 12v142l823 360l-823 365v141l977 -445v-120z" />
<glyph unicode="?" horiz-adv-x="1042" d="M14 1389q5 95 126.5 170t346.5 75q246 0 383.5 -90t137.5 -256q0 -68 -30 -126.5t-78.5 -101t-107 -82t-116.5 -78.5t-106.5 -81t-78.5 -99t-30 -124q0 -74 16 -121l-12 -8q-92 58 -145.5 146.5t-53.5 185.5q0 59 24 109.5t62 87t84.5 69.5t93 65t84.5 66t62 80t24 100 q0 92 -44.5 140.5t-129.5 48.5q-55 0 -94.5 -31t-64 -74.5t-50 -87.5t-67.5 -75t-100 -31t-97 32.5t-39 90.5zM287 172q0 83 58.5 142t141.5 59t142 -59t59 -142t-59 -142t-142 -59t-141.5 59t-58.5 142z" />
<glyph unicode="@" horiz-adv-x="1888" d="M76 770q0 144 44 276t127.5 239t198 186.5t262 123t312.5 43.5q167 0 311 -48t251.5 -136.5t168.5 -223.5t61 -300q0 -122 -36.5 -237t-100 -205t-159 -144.5t-205.5 -54.5q-79 0 -142 21.5t-99 55t-54.5 71t-18.5 73.5h-2q-36 -79 -108.5 -136t-163.5 -57 q-130 0 -220.5 105t-90.5 258q0 102 35.5 201t95 176.5t132.5 137.5t152 92t150 32q47 0 80.5 -17.5t51.5 -48t26.5 -60.5t11.5 -65h4l47 156h199l-170 -627q-78 -272 82 -272q75 0 140 32t110 86t77 124.5t47 147.5t15 155q0 147 -51.5 264t-142.5 191t-212.5 112.5 t-265.5 38.5q-192 0 -350.5 -60t-263.5 -164.5t-162 -245.5t-57 -302q0 -321 208 -509.5t564 -188.5q358 0 594 174l36 -97q-247 -178 -651 -178q-249 0 -446 98.5t-309.5 282.5t-112.5 424zM621 580q0 -197 124 -197q51 0 95 25t73.5 60.5t57.5 92t43 99.5t33 104 q12 34 23 76.5t23 101t13.5 111t-5.5 99t-34 75t-72 28.5q-87 0 -175.5 -106.5t-143.5 -264.5t-55 -304z" />
<glyph unicode="A" horiz-adv-x="1556" d="M20 0l615 1612h285l616 -1612h-348l-205 537h-621l-200 -537h-142zM430 719h485l-245 645z" />
<glyph unicode="B" horiz-adv-x="1529" d="M199 0v1612h473q107 0 199.5 -11.5t179.5 -39.5t148.5 -71.5t98.5 -112.5t37 -158q0 -143 -107.5 -238.5t-275.5 -116.5q99 -9 182.5 -36t152.5 -73.5t108 -120.5t39 -169q0 -106 -38.5 -187t-105 -133t-164 -85t-206 -46.5t-240.5 -13.5h-481zM535 117h161 q200 0 291.5 74t91.5 253q0 184 -91 258t-292 74h-161v-659zM535 887h90q105 0 178 21.5t113 64t56.5 95t16.5 124.5t-16.5 124.5t-56.5 94.5t-112.5 63t-178.5 21h-90v-608z" />
<glyph unicode="C" horiz-adv-x="1828" d="M106 805q0 133 33.5 253t107.5 227t182 184.5t267.5 123t354.5 45.5q361 0 612 -135v-454h-29q-71 248 -218.5 365.5t-373.5 117.5q-263 0 -422 -189.5t-159 -537.5t159 -537.5t422 -189.5q462 0 600 483h29v-455q-249 -135 -631 -135q-193 0 -351 45.5t-265 123.5 t-180 185t-105.5 227t-32.5 253z" />
<glyph unicode="D" horiz-adv-x="1785" d="M199 0v1612h512q294 0 512.5 -96.5t337 -279.5t118.5 -431q0 -374 -261.5 -589.5t-706.5 -215.5h-512zM535 125h167q77 0 140 7t129 26t117 51t96.5 84t75.5 122.5t47.5 169t17.5 220.5q0 123 -17.5 221.5t-47.5 169t-75.5 123t-96.5 84t-117 51t-129 26.5t-140 7h-167 v-1362z" />
<glyph unicode="E" horiz-adv-x="1349" d="M199 0v1612h1075v-125h-739v-590h661v-129h-661v-643h739v-125h-1075z" />
<glyph unicode="F" horiz-adv-x="1288" d="M199 0v1612h1095v-125h-759v-590h682v-129h-682v-768h-336z" />
<glyph unicode="G" horiz-adv-x="1865" d="M106 805q0 110 24.5 212t74 196t128.5 171t182.5 134t242 88.5t301.5 31.5q361 0 612 -135v-454h-29q-71 248 -218 365.5t-373 117.5q-130 0 -237.5 -47.5t-186.5 -137.5t-122.5 -228.5t-43.5 -313.5q0 -348 159 -537.5t422 -189.5q123 0 227.5 34.5t143.5 100.5v532h316 v-559q-102 -98 -292 -156.5t-397 -58.5q-193 0 -351 45.5t-265 123.5t-180 185t-105.5 227t-32.5 253z" />
<glyph unicode="H" horiz-adv-x="1822" d="M199 0v1612h336v-715h753v715h336v-1612h-336v768h-753v-768h-336z" />
<glyph unicode="I" horiz-adv-x="733" d="M199 0v1612h336v-1612h-336z" />
<glyph unicode="J" horiz-adv-x="747" d="M-41 -193q66 55 104.5 90t71.5 75t48 69t26 74t13.5 89t2.5 115v1293h336v-1174q0 -55 -9.5 -104.5t-24.5 -91t-42.5 -82t-55 -72.5t-70.5 -67t-80 -61.5t-93.5 -59.5t-101 -57.5t-111.5 -59.5z" />
<glyph unicode="K" horiz-adv-x="1624" d="M199 0v1612h336v-1612h-336zM535 768l829 844h164l-692 -709l794 -903h-424z" />
<glyph unicode="L" horiz-adv-x="1247" d="M199 0v1612h336v-1487h718v-125h-1054z" />
<glyph unicode="M" horiz-adv-x="2105" d="M168 0l76 1612h383l448 -1272l393 1272h394l75 -1612h-335l-70 1403l-442 -1403h-226l-493 1372l-62 -1372h-141z" />
<glyph unicode="N" horiz-adv-x="1712" d="M199 0v1612h366l809 -1278v1278h139v-1612h-303l-872 1378v-1378h-139z" />
<glyph unicode="O" horiz-adv-x="1974" d="M106 805q0 250 114.5 440.5t314 291.5t452.5 101t452.5 -101t314 -291.5t114.5 -440.5t-114.5 -441t-314 -292t-452.5 -101t-452.5 101t-314 292t-114.5 441zM461 805q0 -187 42 -331t115.5 -230.5t166.5 -130t202 -43.5q87 0 164 26.5t144 84.5t115 143t75.5 208 t27.5 273t-27.5 273t-75.5 208t-115 143t-144 84.5t-164 26.5q-109 0 -202 -43.5t-166.5 -130t-115.5 -230.5t-42 -331z" />
<glyph unicode="P" horiz-adv-x="1454" d="M199 0v1612h520q735 0 735 -453q0 -452 -735 -452h-184v-707h-336zM535 823h176q213 0 302 82t89 254t-89 254t-302 82h-176v-672z" />
<glyph unicode="Q" horiz-adv-x="1974" d="M106 805q0 250 114.5 440.5t314 291.5t452.5 101t452.5 -101t314 -291.5t114.5 -440.5q0 -276 -135.5 -474.5t-370.5 -291.5l289 -301l-97 -94l-335 352q-116 -25 -232 -25q-253 0 -452.5 101t-314 292t-114.5 441zM461 805q0 -187 42 -331t115.5 -230.5t166.5 -130 t202 -43.5q80 0 141 20l-292 305l94 94l325 -339q258 178 258 655q0 150 -27.5 273t-75.5 208t-115 143t-144 84.5t-164 26.5q-109 0 -202 -43.5t-166.5 -130t-115.5 -230.5t-42 -331z" />
<glyph unicode="R" horiz-adv-x="1579" d="M199 0v1612h422q114 0 207.5 -7t186 -24t162 -48t124 -76.5t82.5 -112.5t28 -152q0 -88 -27.5 -154.5t-82 -112t-122 -75t-159.5 -51.5l541 -799h-396l-481 743h-149v-743h-336zM535 862h102q213 0 317.5 69t104.5 243q0 94 -27.5 158t-84 99t-129 49.5t-175.5 14.5h-108 v-633z" />
<glyph unicode="S" horiz-adv-x="1458" d="M158 90v510h28q60 -253 178 -387.5t316 -134.5q375 0 375 272q0 63 -26.5 115t-76 90.5t-106 66.5t-129.5 52l-152 51q-399 131 -399 487q0 136 76.5 234t200.5 145t280 47q292 0 491 -108v-461h-28q-32 110 -73 193t-97 146t-131.5 95.5t-167.5 32.5 q-146 0 -227.5 -56.5t-81.5 -154.5q0 -93 67.5 -167.5t222.5 -131.5l185 -65q52 -19 92.5 -36t88 -42.5t82.5 -52t69.5 -64.5t56.5 -80.5t35.5 -98.5t13.5 -120q0 -101 -33.5 -184t-92 -140.5t-139.5 -96.5t-173 -57t-195 -18q-141 0 -282 30.5t-248 88.5z" />
<glyph unicode="T" horiz-adv-x="1433" d="M14 1487v125h1405v-125h-534v-1487h-336v1487h-535z" />
<glyph unicode="U" horiz-adv-x="1681" d="M178 569v1043h336v-1041q0 -132 29 -222.5t87.5 -141.5t135 -72.5t182.5 -21.5q238 0 349.5 125t111.5 374v1000h147v-1014q0 -322 -167.5 -474.5t-526.5 -152.5q-684 0 -684 598z" />
<glyph unicode="V" horiz-adv-x="1550" d="M41 1612h348l485 -1364l490 1364h145l-587 -1612h-295z" />
<glyph unicode="W" horiz-adv-x="2267" d="M68 1612h368l297 -1348l307 1348h328l369 -1346l317 1346h146l-392 -1612h-342l-364 1307l-297 -1307h-342z" />
<glyph unicode="X" horiz-adv-x="1634" d="M35 0l614 786l-579 826h397l393 -559l436 559h170l-526 -674l659 -938h-397l-471 672l-526 -672h-170z" />
<glyph unicode="Y" horiz-adv-x="1470" d="M14 1612h377l428 -813l492 813h145l-584 -975v-637h-335v639z" />
<glyph unicode="Z" horiz-adv-x="1427" d="M47 0v125l938 1362h-846v125h1213v-125l-938 -1362h919v-125h-1286z" />
<glyph unicode="[" horiz-adv-x="528" d="M158 -496v2108h354v-119h-223v-1870h223v-119h-354z" />
<glyph unicode="\" horiz-adv-x="897" d="M-6 1710h123l786 -1845h-123z" />
<glyph unicode="]" horiz-adv-x="530" d="M18 -377h224v1870h-224v119h355v-2108h-355v119z" />
<glyph unicode="^" horiz-adv-x="870" d="M-6 874l375 738h131l377 -738h-146l-297 574l-295 -574h-145z" />
<glyph unicode="_" horiz-adv-x="903" d="M37 0h829v-133h-829v133z" />
<glyph unicode="`" horiz-adv-x="589" d="M49 1612h354l138 -375h-21z" />
<glyph unicode="a" horiz-adv-x="1124" d="M49 250q0 80 48 139.5t133 94.5t185 53t220 22l2 170q0 147 -35 204.5t-108 57.5q-115 0 -115 -80q0 -23 11 -55.5t11 -60.5q0 -52 -34.5 -85.5t-100.5 -33.5q-56 0 -92.5 37t-36.5 98q0 99 113 172.5t293 73.5q76 0 134 -11t110.5 -41.5t85.5 -80.5t52 -132 q17 -74 17 -171v-21l-6 -340v-11q0 -87 15 -119q16 -34 59 -34q58 0 108 86l21 -10q-77 -197 -267 -197q-91 0 -159.5 43t-79.5 136q-37 -90 -103 -136.5t-172 -46.5q-136 0 -222.5 80t-86.5 199zM360 305q-2 -16 -2 -32q0 -73 44 -116q52 -53 122 -53q62 0 109 50 q-2 6 -2 32l4 314q-119 0 -193 -56t-82 -139z" />
<glyph unicode="b" horiz-adv-x="1359" d="M158 0v1612h313v-1612h-313zM471 180q82 -76 184 -76q127 0 209 114.5t82 291.5t-82 291t-209 114q-104 0 -184 -75q46 103 124 156t202 53q210 0 343.5 -150t133.5 -389q0 -228 -137 -383.5t-344 -155.5q-124 0 -199.5 52.5t-122.5 156.5z" />
<glyph unicode="c" horiz-adv-x="1130" d="M86 496q0 115 35 209.5t92.5 157t134.5 105.5t157.5 62t164.5 19q158 0 265 -54t107 -145q0 -59 -39 -95t-96 -36q-58 0 -94 26.5t-52.5 64t-31 75t-43 64t-76.5 26.5q-62 0 -107 -59.5t-66 -148t-21 -189.5q0 -117 35.5 -216t112 -164t181.5 -65q98 0 176 62t113 190 l35 -8q-38 -209 -149.5 -307.5t-307.5 -98.5q-228 0 -377 147t-149 378z" />
<glyph unicode="d" horiz-adv-x="1359" d="M86 510q0 228 137 383.5t344 155.5q124 0 199.5 -52.5t122.5 -156.5q-80 75 -184 75q-127 0 -209 -114t-82 -291t82 -291.5t209 -114.5q102 0 184 76q-46 -103 -124 -156t-202 -53q-210 0 -343.5 150t-133.5 389zM889 0v1612h313v-1612h-313z" />
<glyph unicode="e" horiz-adv-x="1177" d="M86 496q0 254 155 403.5t398 149.5q193 0 316.5 -114.5t140.5 -320.5h-682q-1 -14 -1 -29q0 -72 17 -142q20 -84 61 -154t111 -113t158 -43q104 0 183 57.5t128 204.5l35 -10q-46 -218 -161.5 -316t-311.5 -98q-239 0 -393 147t-154 378zM418 698h354q1 21 1 42 q-1 50 -9 94q-12 62 -50 103.5t-98 41.5q-89 0 -141 -80t-57 -201z" />
<glyph unicode="f" horiz-adv-x="782" d="M6 893v133h207q5 122 33.5 224t74 172.5t105 120t126 72.5t136.5 23q92 0 145.5 -38.5t53.5 -104.5q0 -54 -32 -90.5t-91 -36.5q-38 0 -65 13.5t-43.5 32t-32 37.5t-40 32.5t-57.5 13.5q-54 0 -80 -43q-23 -38 -23 -96q0 -8 1 -16q3 -69 26 -151.5t62 -164.5h307v-133 h-293v-893h-313v893h-207z" />
<glyph unicode="g" horiz-adv-x="1296" d="M14 -283q0 45 21.5 79t65.5 57.5t94.5 38t123.5 28.5q-97 18 -153.5 72t-56.5 143q0 87 87 153t238 89q-159 29 -251.5 118t-92.5 212q0 146 132 244t347 98q91 0 185 -23h549v-113l-363 19q109 -92 109 -225q0 -146 -132.5 -244t-347.5 -98q-59 0 -127 10 q-64 -22 -91 -53t-27 -74q0 -38 38.5 -52t141.5 -14h149q103 0 178.5 -6.5t147 -25.5t116 -52t71 -88t26.5 -131q0 -98 -60.5 -176t-160 -124t-216.5 -69.5t-241 -23.5q-245 0 -372.5 62t-127.5 169zM223 -252q0 -89 77 -132.5t206 -43.5q87 0 153.5 9t121 30t83.5 59.5 t29 93.5q0 59 -35.5 93.5t-90 45.5t-138.5 11h-230q-19 0 -65 4q-111 -60 -111 -170zM399 707q0 -132 38.5 -201.5t131.5 -69.5t131.5 69.5t38.5 201.5t-38.5 201t-131.5 69t-131.5 -69t-38.5 -201z" />
<glyph unicode="h" horiz-adv-x="1271" d="M158 0v1612h313v-1612h-313zM471 758q35 153 128 222t222 69q324 0 324 -396v-653h-314v633q0 132 -45 189t-118 57q-138 0 -197 -121z" />
<glyph unicode="i" d="M133 1407q0 75 53.5 128.5t128.5 53.5t129 -53.5t54 -128.5t-54 -128.5t-129 -53.5t-128.5 53.5t-53.5 128.5zM158 0v1026h313v-1026h-313z" />
<glyph unicode="j" d="M-106 -500q66 56 104 91t71.5 75t48 68.5t25.5 74t13 88.5t2 115v1014h313v-895q0 -70 -13.5 -131.5t-36.5 -112t-63 -98t-82 -85.5t-105 -79.5t-121 -74.5t-140 -76zM139 1407q0 75 54 128.5t129 53.5t128.5 -53.5t53.5 -128.5t-53.5 -128.5t-128.5 -53.5t-129 53.5 t-54 128.5z" />
<glyph unicode="k" horiz-adv-x="1198" d="M158 0v1612h313v-1612h-313zM471 526l508 500h154l-369 -371l444 -655h-385z" />
<glyph unicode="l" d="M158 0v1612h313v-1612h-313z" />
<glyph unicode="m" horiz-adv-x="1916" d="M158 0v1026h313v-1026h-313zM471 758q35 153 128 222t222 69q76 0 132.5 -22.5t89.5 -58.5t53.5 -89.5t27 -106.5t6.5 -119v-653h-313v633q0 246 -153 246q-134 0 -193 -121zM1126 758q23 104 79.5 171t124.5 93.5t151 26.5q76 0 132.5 -22.5t89.5 -58.5t53.5 -89.5 t27 -106.5t6.5 -119v-653h-313v633q0 246 -154 246q-138 0 -197 -121z" />
<glyph unicode="n" horiz-adv-x="1271" d="M158 0v1026h313v-1026h-313zM471 758q35 153 128 222t222 69q324 0 324 -396v-653h-314v633q0 132 -45 189t-118 57q-138 0 -197 -121z" />
<glyph unicode="o" horiz-adv-x="1294" d="M86 510q0 113 39.5 212t111 171.5t177.5 114t233 41.5t233 -41.5t177.5 -114t111 -171.5t39.5 -212t-39.5 -212t-111 -171.5t-177.5 -114t-233 -41.5t-233 41.5t-177.5 114t-111 171.5t-39.5 212zM414 510q0 -68 5.5 -128t21 -124t40 -109t67.5 -74.5t99 -29.5t99 29.5 t68 74.5t40.5 109t21 124t5.5 128t-5.5 128t-21 124t-40.5 109t-68 74.5t-99 29.5t-99 -29.5t-67.5 -74.5t-40 -109t-21 -124t-5.5 -128z" />
<glyph unicode="p" horiz-adv-x="1359" d="M158 -496v1522h313v-1522h-313zM471 180q82 -76 184 -76q127 0 209 114.5t82 291.5t-82 291t-209 114q-104 0 -184 -75q46 103 124 156t202 53q210 0 343.5 -150t133.5 -389q0 -228 -137 -383.5t-344 -155.5q-124 0 -199.5 52.5t-122.5 156.5z" />
<glyph unicode="q" horiz-adv-x="1359" d="M86 510q0 228 137 383.5t344 155.5q124 0 199.5 -52.5t122.5 -156.5q-80 75 -184 75q-127 0 -209 -114t-82 -291t82 -291.5t209 -114.5q102 0 184 76q-46 -103 -124 -156t-202 -53q-210 0 -343.5 150t-133.5 389zM889 -496v1522h313v-1522h-313z" />
<glyph unicode="r" horiz-adv-x="903" d="M158 0v1026h313v-1026h-313zM471 696q27 79 58 136.5t78 105.5t113 72t152 24v-280q-115 16 -198 16q-161 0 -203 -74z" />
<glyph unicode="s" horiz-adv-x="1028" d="M92 199q0 51 31.5 82.5t85.5 31.5q40 0 66.5 -14.5t40.5 -38t24 -51.5t23 -56t32 -51.5t55.5 -38t88.5 -14.5q86 0 138 38.5t52 105.5q0 64 -52 111t-175 81l-84 23q-303 81 -303 327q0 137 119 227.5t311 90.5q90 0 169 -21t132 -65.5t53 -104.5q0 -52 -32 -84.5 t-85 -32.5q-39 0 -66 13t-41 33.5t-24 45.5t-22 50t-28.5 45.5t-49 33.5t-78.5 13q-72 0 -116 -34.5t-44 -90.5q0 -123 217 -182l84 -23q179 -47 255.5 -124t76.5 -210q0 -160 -129 -252t-321 -92q-103 0 -193 25t-150.5 78t-60.5 125z" />
<glyph unicode="t" horiz-adv-x="901" d="M20 893v133h203v168l309 242v-410h365v-133h-365v-606q0 -99 32 -141t110 -42q57 0 104 29.5t99 104.5l32 -19q-114 -248 -368 -248q-168 0 -243 72t-75 240v610h-203z" />
<glyph unicode="u" horiz-adv-x="1271" d="M127 367v659h313v-713q0 -207 150 -207q81 0 128.5 32.5t82.5 99.5q-85 -267 -350 -267q-76 0 -134.5 24t-93.5 62t-57.5 91.5t-30.5 106t-8 112.5zM801 0v1026h313v-1026h-313z" />
<glyph unicode="v" horiz-adv-x="1077" d="M14 1026h357l270 -774l285 774h137l-389 -1026h-268z" />
<glyph unicode="w" horiz-adv-x="1683" d="M14 1026h357l229 -774l199 774h270l219 -774l244 774h137l-328 -1026h-309l-207 709l-172 -709h-309z" />
<glyph unicode="x" horiz-adv-x="1181" d="M35 0l409 467l-397 559h371l231 -328l289 328h160l-377 -428l426 -598h-371l-260 367l-321 -367h-160z" />
<glyph unicode="y" horiz-adv-x="1163" d="M14 1026h357l317 -707l322 707h139l-715 -1524h-139l223 461z" />
<glyph unicode="z" horiz-adv-x="1083" d="M66 0v113l579 800h-518v113h881v-113l-580 -800h563v-113h-925z" />
<glyph unicode="{" d="M76 506v102q47 0 78 16.5t46 47t20 62t5 73.5v553q0 45 2.5 76t10.5 62t23.5 50t40.5 34.5t62 22.5t87 7h81v-119h-24q-37 0 -59.5 -1.5t-41 -8.5t-27.5 -16.5t-15 -29t-7.5 -42t-1.5 -60.5v-510q0 -131 -32 -188t-107 -78v-4q75 -21 107 -78t32 -188v-508 q0 -38 1.5 -60.5t7.5 -42t15 -29t27.5 -16.5t41 -8.5t59.5 -1.5h24v-119h-81q-50 0 -87 7t-62 22.5t-40.5 34.5t-23.5 50t-10.5 62t-2.5 76v551q0 42 -5 73.5t-20 62t-46 47t-78 16.5z" />
<glyph unicode="|" horiz-adv-x="450" d="M158 -66v1678h135v-1678h-135z" />
<glyph unicode="}" d="M96 -377h25q37 0 59.5 1.5t41 8.5t27.5 16.5t14.5 29.5t7 42t1.5 60v508q0 130 32.5 187.5t107.5 78.5v4q-75 21 -107.5 78.5t-32.5 187.5v510q0 38 -1.5 60t-7 42t-14.5 29.5t-27.5 16.5t-41 8.5t-59.5 1.5h-25v119h82q75 0 120.5 -15t68 -50.5t29.5 -76.5t7 -110v-553 q0 -42 5.5 -73.5t20 -62t46 -47t78.5 -16.5v-102q-47 0 -78.5 -16.5t-46 -47t-20 -62t-5.5 -73.5v-551q0 -69 -7 -110t-29.5 -76.5t-68 -50.5t-120.5 -15h-82v119z" />
<glyph unicode="~" horiz-adv-x="1021" d="M35 387q7 122 78 189t184 67q61 0 127 -21.5t112.5 -48t99.5 -48t91 -21.5q56 0 91.5 35t39.5 104h129q-7 -122 -77.5 -189t-182.5 -67q-52 0 -114.5 21.5t-110 47t-105 47t-100.5 21.5q-57 0 -92 -34t-39 -103h-131z" />
<glyph unicode="&#xa1;" horiz-adv-x="716" d="M158 825q0 83 58.5 142t141.5 59t142 -59t59 -142t-59 -141.5t-142 -58.5t-141.5 58.5t-58.5 141.5zM178 -508q7 179 22 305.5t34 202.5t38.5 140.5t40 163t33.5 226.5h33q13 -128 33.5 -226.5t40 -163.5t38.5 -141.5t34 -202.5t22 -304q-79 -29 -185 -29q-105 0 -184 29 z" />
<glyph unicode="&#xa2;" horiz-adv-x="1099" d="M80 496q0 105 29 193t77 149t114 105.5t137 68.5t149 32v211h69v-206h9q158 0 265 -54t107 -145q0 -59 -39 -95t-96 -36q-52 0 -86 20.5t-51 52.5t-29.5 65.5t-32 64t-47.5 43.5v-820q41 -12 84 -12q98 0 176 62t113 190l35 -8q-35 -194 -135.5 -293t-272.5 -111v-206 h-69v204q-221 8 -363.5 153.5t-142.5 371.5zM410 578q0 -129 45.5 -238t130.5 -164v797q-56 -8 -97 -68.5t-60 -146t-19 -180.5z" />
<glyph unicode="&#xa3;" horiz-adv-x="1363" d="M16 -14l9 77q160 0 270.5 131t110.5 347q0 65 -35 149h-293v113h241q-5 12 -32 69.5t-35.5 78t-24.5 63.5t-22 74t-6 61q0 161 155 262.5t439 101.5q197 0 326.5 -60.5t129.5 -145.5q0 -59 -35 -93t-92 -34t-96 27t-61.5 65l-45 76t-64.5 65t-103 27q-224 0 -224 -238 q0 -58 27 -123t70.5 -144t62.5 -132h385v-113h-352q4 -46 4 -63q0 -73 -41 -155t-104.5 -150.5t-131.5 -123t-129 -87.5l5 -9q14 9 69.5 46t75.5 49.5t66 39.5t73.5 37.5t64 20.5t68.5 10q65 0 128 -20t103.5 -43.5t85.5 -43.5t79 -20q56 0 92.5 16.5t79.5 65.5l20 -16 q-77 -143 -145 -208t-148 -65q-54 0 -125.5 24t-161 48.5t-186.5 24.5q-67 0 -137 -16.5t-120 -35t-127.5 -29t-162.5 -1.5z" />
<glyph unicode="&#xa5;" horiz-adv-x="1415" d="M14 1475h353l419 -762l467 762h148l-533 -854h312v-113h-349v-174h349v-113h-349v-221h-313v221h-348v113h348v174h-348v113h317z" />
<glyph unicode="&#xa6;" horiz-adv-x="442" d="M158 412h127v-834h-127v834zM158 778v834h127v-834h-127z" />
<glyph unicode="&#xa7;" horiz-adv-x="1263" d="M96 -207q0 44 34.5 76.5t88.5 32.5q48 0 88.5 -30.5t71.5 -74t63.5 -87.5t80 -74.5t106.5 -30.5q114 0 189 62.5t75 154.5q0 177 -262 272l-176 66q-351 127 -351 370q0 104 89 206t249 141q-45 -39 -72.5 -95.5t-27.5 -119.5q0 -74 61.5 -134t174.5 -102l180 -66l78 -30 q39 24 65.5 75.5t26.5 110.5q0 49 -19 91.5t-46.5 71.5t-69 55t-75.5 41t-77 30l-201 74q-151 55 -229 159.5t-78 231.5q0 164 141.5 264t356.5 100q121 0 226.5 -30t169 -82t63.5 -113q0 -43 -35.5 -73.5t-85.5 -30.5q-37 0 -66 14.5t-49 38t-38 52t-37.5 57t-42 52 t-57.5 38t-79 14.5q-88 0 -152.5 -51t-64.5 -140q0 -84 51.5 -140.5t153.5 -96.5l209 -80q195 -72 282.5 -166t87.5 -221q0 -103 -93 -199.5t-236 -146.5q169 -73 248 -163.5t79 -217.5q0 -84 -38.5 -158.5t-108 -130.5t-173 -88.5t-227.5 -32.5q-113 0 -231.5 31t-204.5 91 t-86 132z" />
<glyph unicode="&#xa8;" horiz-adv-x="940" d="M61 1444q0 66 47 113t113 47t113 -47t47 -113t-47 -113t-113 -47t-113 47t-47 113zM559 1444q0 66 47 113t113 47t113 -47t47 -113t-47 -113t-113 -47t-113 47t-47 113z" />
<glyph unicode="&#xa9;" horiz-adv-x="1558" d="M76 678q0 204 94.5 366t254.5 250t355 88q144 0 273 -52t224 -143t150.5 -223.5t55.5 -285.5q0 -204 -95 -366t-255 -249.5t-353 -87.5q-195 0 -355 87.5t-254.5 249.5t-94.5 366zM197 678q0 -130 45 -242t123 -189t185.5 -121t229.5 -44q253 0 417.5 166.5t164.5 429.5 q0 131 -44 243t-121.5 189t-185 120.5t-231.5 43.5q-122 0 -229.5 -43.5t-185.5 -120.5t-123 -189t-45 -243zM426 686q0 181 96.5 283t259.5 102q128 0 208 -63.5t108 -167.5l-115 -37q-18 76 -76 118t-133 42q-94 0 -158.5 -72t-64.5 -205q0 -131 65.5 -208t157.5 -77 q73 0 132 37t81 111l117 -33q-34 -97 -116.5 -159t-213.5 -62q-165 0 -256.5 103t-91.5 288z" />
<glyph unicode="&#xab;" horiz-adv-x="1050" d="M55 512l381 438h92l-188 -438l188 -440h-92zM440 512l379 438h94l-190 -438l190 -440h-94z" />
<glyph unicode="&#xac;" horiz-adv-x="1196" d="M45 696v123h993v-633h-133v510h-860z" />
<glyph unicode="&#xad;" horiz-adv-x="718" d="M96 436v166h527v-166h-527z" />
<glyph unicode="&#xae;" horiz-adv-x="1558" d="M76 678q0 204 94.5 366t254.5 250t355 88q144 0 273 -52t224 -143t150.5 -223.5t55.5 -285.5q0 -204 -95 -366t-255 -249.5t-353 -87.5q-195 0 -355 87.5t-254.5 249.5t-94.5 366zM197 678q0 -130 45 -242t123 -189t185.5 -121t229.5 -44q253 0 417.5 166.5t164.5 429.5 q0 131 -44 243t-121.5 189t-185 120.5t-231.5 43.5q-122 0 -229.5 -43.5t-185.5 -120.5t-123 -189t-45 -243zM514 328v745h225q70 0 120.5 -5t96.5 -19.5t73.5 -39t44 -65t16.5 -96.5q0 -66 -35.5 -119.5t-104.5 -81.5l170 -319h-135l-151 293q-21 -3 -43 -3h-158v-290h-119 zM633 727h153q93 0 136 29t43 90q0 65 -48.5 90t-138.5 25h-145v-234z" />
<glyph unicode="&#xaf;" horiz-adv-x="802" d="M49 1341v113h705v-113h-705z" />
<glyph unicode="&#xb0;" d="M35 1350q0 118 80.5 199t197.5 81t199 -81t82 -199q0 -117 -82 -198t-199 -81t-197.5 81t-80.5 198zM162 1350q0 -71 42 -119.5t109 -48.5q70 0 113 48.5t43 119.5q0 74 -42.5 122t-113.5 48q-68 0 -109.5 -48.5t-41.5 -121.5z" />
<glyph unicode="&#xb1;" horiz-adv-x="1181" d="M76 0v123h1030v-123h-1030zM76 557v123h450v332h129v-332h451v-123h-451v-342h-129v342h-450z" />
<glyph unicode="&#xb4;" horiz-adv-x="589" d="M49 1237l137 375h355l-471 -375h-21z" />
<glyph unicode="&#xb5;" horiz-adv-x="1056" d="M117 -354q18 81 18 295v1063h131v-545q0 -182 67.5 -276.5t192.5 -94.5q124 0 194.5 99t70.5 278v539h131v-1004h-131v160q-83 -185 -265 -185q-184 0 -260 172v-190q0 -218 -18 -311h-131z" />
<glyph unicode="&#xb6;" horiz-adv-x="1038" d="M35 1251q0 170 116 264.5t343 94.5h346v-1780h-123v1663h-221v-1663h-125v1085q-66 6 -124.5 29.5t-106.5 64t-76.5 103t-28.5 139.5z" />
<glyph unicode="&#xb7;" horiz-adv-x="634" d="M117 582q0 83 58.5 141.5t141.5 58.5t142 -58.5t59 -141.5t-59 -142t-142 -59t-141.5 59t-58.5 142z" />
<glyph unicode="&#xb8;" horiz-adv-x="468" d="M49 -518q93 16 149 86t56 139q0 36 -17 57t-49 21q-19 0 -59 -16l-49 38l106 185h62l-109 -180q62 45 133 45q62 0 105 -36.5t43 -96.5q0 -61 -36.5 -111.5t-93 -80.5t-119 -46t-120.5 -16z" />
<glyph unicode="&#xbb;" horiz-adv-x="1050" d="M137 72l191 440l-191 438h94l381 -438l-381 -440h-94zM522 72l189 440l-189 438h92l381 -438l-381 -440h-92z" />
<glyph unicode="&#xbf;" horiz-adv-x="1042" d="M0 -170q0 60 23.5 107.5t62 77.5t87.5 57.5t100.5 47t100.5 46.5t87.5 56.5t62 75.5t23.5 105q0 71 -17 121l13 8q92 -58 145 -146t53 -185q0 -59 -24 -104.5t-62 -74.5t-84.5 -52.5t-93 -44.5t-84.5 -44.5t-62 -58.5t-24 -80q0 -81 47 -132.5t135 -51.5q53 0 91 30.5 t62 73.5t48.5 86.5t66.5 74t101 30.5q58 0 96.5 -32.5t38.5 -90.5q0 -43 -28.5 -85.5t-84 -79t-149 -59t-211.5 -22.5q-246 0 -383 90t-137 256zM319 827q0 83 59 142t142 59t142 -59t59 -142t-59 -141.5t-142 -58.5t-142 58.5t-59 141.5z" />
<glyph unicode="&#xc0;" horiz-adv-x="1556" d="M20 0l615 1612h285l616 -1612h-348l-205 537h-621l-200 -537h-142zM414 2028h415l76 -340h-20zM430 719h485l-245 645z" />
<glyph unicode="&#xc1;" horiz-adv-x="1556" d="M20 0l615 1612h285l616 -1612h-348l-205 537h-621l-200 -537h-142zM430 719h485l-245 645zM659 1688l76 340h416l-471 -340h-21z" />
<glyph unicode="&#xc2;" horiz-adv-x="1556" d="M20 0l615 1612h285l616 -1612h-348l-205 537h-621l-200 -537h-142zM416 1688l366 368l367 -368h-21l-346 143l-346 -143h-20zM430 719h485l-245 645z" />
<glyph unicode="&#xc3;" horiz-adv-x="1556" d="M20 0l615 1612h285l616 -1612h-348l-205 537h-621l-200 -537h-142zM416 1704l96 299h528l93 117l14 -9l-96 -299h-529l-92 -116zM430 719h485l-245 645z" />
<glyph unicode="&#xc4;" horiz-adv-x="1556" d="M20 0l615 1612h285l616 -1612h-348l-205 537h-621l-200 -537h-142zM354 1868q0 66 47 113t113 47t113 -47t47 -113t-47 -113t-113 -47t-113 47t-47 113zM430 719h485l-245 645zM893 1868q0 66 47 113t113 47t112.5 -47t46.5 -113t-46.5 -113t-112.5 -47t-113 47t-47 113z " />
<glyph unicode="&#xc5;" horiz-adv-x="1556" d="M20 0l615 1612h285l616 -1612h-348l-205 537h-621l-200 -537h-142zM430 719h485l-245 645zM573 1929q0 84 61 142.5t148 58.5t148 -58.5t61 -142.5t-61 -142t-148 -58t-148 58t-61 142zM674 1929q0 -48 30.5 -80t77.5 -32q52 0 81.5 31.5t29.5 80.5q0 50 -32.5 81.5 t-78.5 31.5q-47 0 -77.5 -32.5t-30.5 -80.5z" />
<glyph unicode="&#xc6;" horiz-adv-x="2177" d="M-27 0l1033 1612h1095v-117h-760v-604h682v-117h-682v-657h760v-117h-1095v455h-611l-291 -455h-131zM512 637h494v770z" />
<glyph unicode="&#xc7;" horiz-adv-x="1828" d="M106 805q0 133 33.5 253t107.5 227t182 184.5t267.5 123t354.5 45.5q361 0 612 -135v-454h-29q-71 248 -218.5 365.5t-373.5 117.5q-263 0 -422 -189.5t-159 -537.5t159 -537.5t422 -189.5q462 0 600 483h29v-455q-249 -135 -631 -135h-45l-98 -200q62 45 133 45 q62 0 105 -36.5t43 -96.5q0 -61 -36.5 -111.5t-93 -80.5t-119 -46t-120.5 -16l-2 12q93 16 149 86t56 139q0 36 -17 57t-49 21q-19 0 -59 -16l-49 39l98 208q-171 11 -311.5 62.5t-235.5 129.5t-159.5 181.5t-94 217.5t-29.5 239z" />
<glyph unicode="&#xc8;" horiz-adv-x="1349" d="M199 0v1612h1075v-125h-739v-590h661v-129h-661v-643h739v-125h-1075zM387 2028h416l76 -340h-21z" />
<glyph unicode="&#xc9;" horiz-adv-x="1349" d="M199 0v1612h1075v-125h-739v-590h661v-129h-661v-643h739v-125h-1075zM616 1688l76 340h416l-471 -340h-21z" />
<glyph unicode="&#xca;" horiz-adv-x="1349" d="M199 0v1612h1075v-125h-739v-590h661v-129h-661v-643h739v-125h-1075zM389 1688l367 368l366 -368h-20l-346 143l-346 -143h-21z" />
<glyph unicode="&#xcb;" horiz-adv-x="1349" d="M199 0v1612h1075v-125h-739v-590h661v-129h-661v-643h739v-125h-1075zM328 1868q0 66 46.5 113t112.5 47t113 -47t47 -113t-47 -113t-113 -47t-112.5 47t-46.5 113zM866 1868q0 66 47 113t113 47t113 -47t47 -113t-47 -113t-113 -47t-113 47t-47 113z" />
<glyph unicode="&#xcc;" horiz-adv-x="733" d="M39 2028h416l75 -340h-20zM199 0v1612h336v-1612h-336z" />
<glyph unicode="&#xcd;" horiz-adv-x="733" d="M199 0v1612h336v-1612h-336zM203 1688l76 340h415l-471 -340h-20z" />
<glyph unicode="&#xce;" horiz-adv-x="733" d="M0 1688l367 368l366 -368h-20l-346 143l-347 -143h-20zM199 0v1612h336v-1612h-336z" />
<glyph unicode="&#xcf;" horiz-adv-x="733" d="M-61 1868q0 66 46.5 113t112.5 47t113 -47t47 -113t-47 -113t-113 -47t-112.5 47t-46.5 113zM199 0v1612h336v-1612h-336zM477 1868q0 66 47 113t113 47t113 -47t47 -113t-47 -113t-113 -47t-113 47t-47 113z" />
<glyph unicode="&#xd0;" horiz-adv-x="1855" d="M0 768v129h268v715h512q294 0 512.5 -96.5t337.5 -279.5t119 -431t-119 -430.5t-337.5 -278.5t-512.5 -96h-512v768h-268zM604 125h168q77 0 140 7t129 26t117 51t96.5 84t75.5 122.5t47.5 169t17.5 220.5q0 123 -17.5 221.5t-47.5 169t-75.5 123t-96.5 84t-117 51 t-129 26.5t-140 7h-168v-590h311v-129h-311v-643z" />
<glyph unicode="&#xd1;" horiz-adv-x="1712" d="M199 0v1612h366l809 -1278v1278h139v-1612h-303l-872 1378v-1378h-139zM612 1704l97 299h528l92 117l14 -9l-96 -299h-528l-92 -116z" />
<glyph unicode="&#xd2;" horiz-adv-x="1974" d="M106 805q0 250 114.5 440.5t314 291.5t452.5 101t452.5 -101t314 -291.5t114.5 -440.5t-114.5 -441t-314 -292t-452.5 -101t-452.5 101t-314 292t-114.5 441zM461 805q0 -187 42 -331t115.5 -230.5t166.5 -130t202 -43.5q87 0 164 26.5t144 84.5t115 143t75.5 208 t27.5 273t-27.5 273t-75.5 208t-115 143t-144 84.5t-164 26.5q-109 0 -202 -43.5t-166.5 -130t-115.5 -230.5t-42 -331zM639 2028h416l75 -340h-20z" />
<glyph unicode="&#xd3;" horiz-adv-x="1974" d="M106 805q0 250 114.5 440.5t314 291.5t452.5 101t452.5 -101t314 -291.5t114.5 -440.5t-114.5 -441t-314 -292t-452.5 -101t-452.5 101t-314 292t-114.5 441zM461 805q0 -187 42 -331t115.5 -230.5t166.5 -130t202 -43.5q87 0 164 26.5t144 84.5t115 143t75.5 208 t27.5 273t-27.5 273t-75.5 208t-115 143t-144 84.5t-164 26.5q-109 0 -202 -43.5t-166.5 -130t-115.5 -230.5t-42 -331zM844 1688l76 340h415l-471 -340h-20z" />
<glyph unicode="&#xd4;" horiz-adv-x="1974" d="M106 805q0 250 114.5 440.5t314 291.5t452.5 101t452.5 -101t314 -291.5t114.5 -440.5t-114.5 -441t-314 -292t-452.5 -101t-452.5 101t-314 292t-114.5 441zM461 805q0 -187 42 -331t115.5 -230.5t166.5 -130t202 -43.5q87 0 164 26.5t144 84.5t115 143t75.5 208 t27.5 273t-27.5 273t-75.5 208t-115 143t-144 84.5t-164 26.5q-109 0 -202 -43.5t-166.5 -130t-115.5 -230.5t-42 -331zM600 1688l367 368l366 -368h-20l-346 143l-346 -143h-21z" />
<glyph unicode="&#xd5;" horiz-adv-x="1974" d="M106 805q0 250 114.5 440.5t314 291.5t452.5 101t452.5 -101t314 -291.5t114.5 -440.5t-114.5 -441t-314 -292t-452.5 -101t-452.5 101t-314 292t-114.5 441zM461 805q0 -187 42 -331t115.5 -230.5t166.5 -130t202 -43.5q87 0 164 26.5t144 84.5t115 143t75.5 208 t27.5 273t-27.5 273t-75.5 208t-115 143t-144 84.5t-164 26.5q-109 0 -202 -43.5t-166.5 -130t-115.5 -230.5t-42 -331zM600 1704l96 299h529l92 117l14 -9l-96 -299h-528l-93 -116z" />
<glyph unicode="&#xd6;" horiz-adv-x="1974" d="M106 805q0 250 114.5 440.5t314 291.5t452.5 101t452.5 -101t314 -291.5t114.5 -440.5t-114.5 -441t-314 -292t-452.5 -101t-452.5 101t-314 292t-114.5 441zM461 805q0 -187 42 -331t115.5 -230.5t166.5 -130t202 -43.5q87 0 164 26.5t144 84.5t115 143t75.5 208 t27.5 273t-27.5 273t-75.5 208t-115 143t-144 84.5t-164 26.5q-109 0 -202 -43.5t-166.5 -130t-115.5 -230.5t-42 -331zM539 1868q0 66 46.5 113t112.5 47t113 -47t47 -113t-47 -113t-113 -47t-112.5 47t-46.5 113zM1077 1868q0 66 47 113t113 47t113 -47t47 -113t-47 -113 t-113 -47t-113 47t-47 113z" />
<glyph unicode="&#xd7;" horiz-adv-x="1032" d="M76 166l346 348l-346 346l92 92l346 -346l348 346l92 -92l-346 -346l348 -350l-92 -92l-350 348l-346 -346z" />
<glyph unicode="&#xd8;" horiz-adv-x="1974" d="M106 805q0 250 114.5 440.5t314 291.5t452.5 101q311 0 537 -151l196 217l68 -62l-193 -210q132 -112 202.5 -271t70.5 -356q0 -250 -114.5 -441t-314 -292t-452.5 -101q-333 0 -567 172l-162 -178l-63 62l157 174q-246 229 -246 604zM461 805q0 -250 69 -410l852 936 q-141 209 -395 209q-109 0 -202 -43.5t-166.5 -130t-115.5 -230.5t-42 -331zM573 309q70 -120 177.5 -179.5t236.5 -59.5q87 0 164 26.5t144 84.5t115 143t75.5 208t27.5 273q0 270 -83 444z" />
<glyph unicode="&#xd9;" horiz-adv-x="1681" d="M178 569v1043h336v-1041q0 -132 29 -222.5t87.5 -141.5t135 -72.5t182.5 -21.5q238 0 349.5 125t111.5 374v1000h147v-1014q0 -322 -167.5 -474.5t-526.5 -152.5q-684 0 -684 598zM614 2028h416l76 -340h-21z" />
<glyph unicode="&#xda;" horiz-adv-x="1681" d="M178 569v1043h336v-1041q0 -132 29 -222.5t87.5 -141.5t135 -72.5t182.5 -21.5q238 0 349.5 125t111.5 374v1000h147v-1014q0 -322 -167.5 -474.5t-526.5 -152.5q-684 0 -684 598zM840 1688l75 340h416l-471 -340h-20z" />
<glyph unicode="&#xdb;" horiz-adv-x="1681" d="M178 569v1043h336v-1041q0 -132 29 -222.5t87.5 -141.5t135 -72.5t182.5 -21.5q238 0 349.5 125t111.5 374v1000h147v-1014q0 -322 -167.5 -474.5t-526.5 -152.5q-684 0 -684 598zM600 1688l367 368l366 -368h-20l-346 143l-346 -143h-21z" />
<glyph unicode="&#xdc;" horiz-adv-x="1681" d="M178 569v1043h336v-1041q0 -132 29 -222.5t87.5 -141.5t135 -72.5t182.5 -21.5q238 0 349.5 125t111.5 374v1000h147v-1014q0 -322 -167.5 -474.5t-526.5 -152.5q-684 0 -684 598zM494 1868q0 66 46.5 113t112.5 47t113 -47t47 -113t-47 -113t-113 -47t-112.5 47 t-46.5 113zM1032 1868q0 66 47 113t113 47t113 -47t47 -113t-47 -113t-113 -47t-113 47t-47 113z" />
<glyph unicode="&#xdd;" horiz-adv-x="1470" d="M14 1612h377l428 -813l492 813h145l-584 -975v-637h-335v639zM715 1688l76 340h415l-471 -340h-20z" />
<glyph unicode="&#xde;" horiz-adv-x="1486" d="M199 0v1612h336v-350h184q735 0 735 -453t-735 -453h-184v-356h-336zM535 473h176q213 0 302 82t89 254t-89 254t-302 82h-176v-672z" />
<glyph unicode="&#xdf;" horiz-adv-x="1470" d="M158 0v1085q0 256 145 402.5t402 146.5q121 0 225.5 -26.5t171.5 -79t67 -121.5q0 -36 -11 -67t-24 -51.5t-41 -43t-44 -33t-50 -30.5l-36 -20t-36.5 -21t-30.5 -19.5t-29.5 -24t-20 -25.5t-15.5 -31.5t-4 -36.5q0 -108 222 -259l69 -49q166 -119 228.5 -201t62.5 -192 q0 -56 -26.5 -112t-77.5 -106.5t-140.5 -82t-201.5 -31.5q-60 0 -122.5 13.5t-117.5 38.5t-90 67t-35 94t34 83.5t81 31.5q49 0 80.5 -26.5t47.5 -64t30.5 -75t40 -64t65.5 -26.5q69 0 123.5 40t54.5 112q0 30 -15 61t-34.5 54.5t-55 52.5t-58 45t-62.5 43l-82 57 q-217 150 -217 334q0 41 9 75.5t31.5 69.5t36.5 52.5t48 56.5q39 46 61.5 78.5t42 88t19.5 117.5q0 82 -47.5 130.5t-129.5 48.5q-44 0 -82 -19t-73.5 -64t-56.5 -134.5t-21 -215.5v-1126h-311z" />
<glyph unicode="&#xe0;" horiz-adv-x="1124" d="M49 250q0 80 48 139.5t133 94.5t185 53t220 22l2 170q0 147 -35 204.5t-108 57.5q-115 0 -115 -80q0 -23 11 -55.5t11 -60.5q0 -52 -34.5 -85.5t-100.5 -33.5q-56 0 -92.5 37t-36.5 98q0 99 113 172.5t293 73.5q76 0 134 -11t110.5 -41.5t85.5 -80.5t52 -131.5t17 -192.5 l-6 -340q-1 -95 15 -129.5t59 -34.5q58 0 108 86l21 -10q-77 -197 -267 -197q-91 0 -159.5 43t-79.5 136q-37 -90 -103 -136.5t-172 -46.5q-136 0 -222.5 80t-86.5 199zM184 1612h355l137 -375h-21zM360 305q-11 -95 41.5 -148t122.5 -53q62 0 109 50q-2 6 -2 32l4 314 q-119 0 -193 -56t-82 -139z" />
<glyph unicode="&#xe1;" horiz-adv-x="1124" d="M49 250q0 80 48 139.5t133 94.5t185 53t220 22l2 170q0 147 -35 204.5t-108 57.5q-115 0 -115 -80q0 -23 11 -55.5t11 -60.5q0 -52 -34.5 -85.5t-100.5 -33.5q-56 0 -92.5 37t-36.5 98q0 99 113 172.5t293 73.5q76 0 134 -11t110.5 -41.5t85.5 -80.5t52 -131.5t17 -192.5 l-6 -340q-1 -95 15 -129.5t59 -34.5q58 0 108 86l21 -10q-77 -197 -267 -197q-91 0 -159.5 43t-79.5 136q-37 -90 -103 -136.5t-172 -46.5q-136 0 -222.5 80t-86.5 199zM360 305q-11 -95 41.5 -148t122.5 -53q62 0 109 50q-2 6 -2 32l4 314q-119 0 -193 -56t-82 -139z M532 1237l138 375h354l-471 -375h-21z" />
<glyph unicode="&#xe2;" horiz-adv-x="1124" d="M49 250q0 80 48 139.5t133 94.5t185 53t220 22l2 170q0 147 -35 204.5t-108 57.5q-115 0 -115 -80q0 -23 11 -55.5t11 -60.5q0 -52 -34.5 -85.5t-100.5 -33.5q-56 0 -92.5 37t-36.5 98q0 99 113 172.5t293 73.5q76 0 134 -11t110.5 -41.5t85.5 -80.5t52 -131.5t17 -192.5 l-6 -340q-1 -95 15 -129.5t59 -34.5q58 0 108 86l21 -10q-77 -197 -267 -197q-91 0 -159.5 43t-79.5 136q-37 -90 -103 -136.5t-172 -46.5q-136 0 -222.5 80t-86.5 199zM207 1237l366 408l367 -408h-20l-347 164l-346 -164h-20zM360 305q-11 -95 41.5 -148t122.5 -53 q62 0 109 50q-2 6 -2 32l4 314q-119 0 -193 -56t-82 -139z" />
<glyph unicode="&#xe3;" horiz-adv-x="1124" d="M49 250q0 80 48 139.5t133 94.5t185 53t220 22l2 170q0 147 -35 204.5t-108 57.5q-115 0 -115 -80q0 -23 11 -55.5t11 -60.5q0 -52 -34.5 -85.5t-100.5 -33.5q-56 0 -92.5 37t-36.5 98q0 99 113 172.5t293 73.5q76 0 134 -11t110.5 -41.5t85.5 -80.5t52 -131.5t17 -192.5 l-6 -340q-1 -95 15 -129.5t59 -34.5q58 0 108 86l21 -10q-77 -197 -267 -197q-91 0 -159.5 43t-79.5 136q-37 -90 -103 -136.5t-172 -46.5q-136 0 -222.5 80t-86.5 199zM227 1253l97 299h528l92 117l14 -8l-96 -299h-528l-92 -117zM360 305q-11 -95 41.5 -148t122.5 -53 q62 0 109 50q-2 6 -2 32l4 314q-119 0 -193 -56t-82 -139z" />
<glyph unicode="&#xe4;" horiz-adv-x="1124" d="M49 250q0 80 48 139.5t133 94.5t185 53t220 22l2 170q0 147 -35 204.5t-108 57.5q-115 0 -115 -80q0 -23 11 -55.5t11 -60.5q0 -52 -34.5 -85.5t-100.5 -33.5q-56 0 -92.5 37t-36.5 98q0 99 113 172.5t293 73.5q76 0 134 -11t110.5 -41.5t85.5 -80.5t52 -131.5t17 -192.5 l-6 -340q-1 -95 15 -129.5t59 -34.5q58 0 108 86l21 -10q-77 -197 -267 -197q-91 0 -159.5 43t-79.5 136q-37 -90 -103 -136.5t-172 -46.5q-136 0 -222.5 80t-86.5 199zM184 1444q0 66 47 113t113 47t113 -47t47 -113t-47 -113t-113 -47t-113 47t-47 113zM360 305 q-11 -95 41.5 -148t122.5 -53q62 0 109 50q-2 6 -2 32l4 314q-119 0 -193 -56t-82 -139zM682 1444q0 66 47 113t113 47t112.5 -47t46.5 -113t-46.5 -113t-112.5 -47t-113 47t-47 113z" />
<glyph unicode="&#xe5;" horiz-adv-x="1124" d="M49 250q0 80 48 139.5t133 94.5t185 53t220 22l2 170q0 147 -35 204.5t-108 57.5q-115 0 -115 -80q0 -23 11 -55.5t11 -60.5q0 -52 -34.5 -85.5t-100.5 -33.5q-56 0 -92.5 37t-36.5 98q0 99 113 172.5t293 73.5q76 0 134 -11t110.5 -41.5t85.5 -80.5t52 -131.5t17 -192.5 l-6 -340q-1 -95 15 -129.5t59 -34.5q58 0 108 86l21 -10q-77 -197 -267 -197q-91 0 -159.5 43t-79.5 136q-37 -90 -103 -136.5t-172 -46.5q-136 0 -222.5 80t-86.5 199zM360 305q-11 -95 41.5 -148t122.5 -53q62 0 109 50q-2 6 -2 32l4 314q-119 0 -193 -56t-82 -139z M365 1481q0 84 60.5 142t147.5 58t148 -58t61 -142t-61 -142.5t-148 -58.5t-147.5 58.5t-60.5 142.5zM465 1481q0 -48 30.5 -80.5t77.5 -32.5q52 0 81.5 32t29.5 81q0 50 -32.5 81t-78.5 31q-47 0 -77.5 -32t-30.5 -80z" />
<glyph unicode="&#xe6;" horiz-adv-x="1685" d="M49 250q0 80 48 139.5t133 94.5t185 53t220 22l2 170q0 147 -35 204.5t-108 57.5q-115 0 -115 -80q0 -23 11 -55.5t11 -60.5q0 -52 -34.5 -85.5t-100.5 -33.5q-56 0 -92.5 37t-36.5 98q0 99 113 172.5t293 73.5q104 0 179 -23t126 -80q136 95 326 95q193 0 316 -114.5 t140 -320.5h-682q-4 -87 16 -171t61 -154t111 -113t158 -43q210 0 312 238l34 -17q-66 -198 -179.5 -290.5t-293.5 -92.5q-237 0 -385.5 146.5t-148.5 378.5v4q-117 0 -191 -56.5t-82 -138.5q-11 -95 40 -148t120 -53q105 0 182 113q-65 -246 -342 -246q-137 0 -224 80 t-87 199zM952 698h355q5 75 -7.5 136.5t-50.5 103t-98 41.5q-89 0 -141.5 -80t-57.5 -201z" />
<glyph unicode="&#xe7;" horiz-adv-x="1130" d="M86 496q0 115 35 209.5t92.5 157t134.5 105.5t157.5 62t164.5 19q158 0 265 -54t107 -145q0 -59 -39 -95t-96 -36q-58 0 -94 26.5t-52.5 64t-31 75t-43 64t-76.5 26.5q-62 0 -107 -59.5t-66 -148t-21 -189.5q0 -117 35.5 -216t112 -164t181.5 -65q98 0 176 62t113 190 l35 -8q-38 -209 -149.5 -307.5t-307.5 -98.5q-33 0 -49 2l-98 -161q62 45 133 45q62 0 104.5 -36.5t42.5 -96.5q0 -61 -36.5 -111.5t-93 -80.5t-118.5 -46t-120 -16l-2 12q93 16 149 86t56 139q0 36 -17 57t-49 21q-19 0 -59 -16l-49 38l100 175q-189 34 -304.5 172.5 t-115.5 341.5z" />
<glyph unicode="&#xe8;" horiz-adv-x="1177" d="M86 496q0 254 155 403.5t398 149.5q193 0 316.5 -114.5t140.5 -320.5h-682q-4 -87 16 -171t61 -154t111 -113t158 -43q104 0 183 57.5t128 204.5l35 -10q-46 -218 -161.5 -316t-311.5 -98q-239 0 -393 147t-154 378zM268 1612h355l137 -375h-21zM418 698h354 q5 75 -7.5 136.5t-50.5 103t-98 41.5q-89 0 -141 -80t-57 -201z" />
<glyph unicode="&#xe9;" horiz-adv-x="1177" d="M86 496q0 254 155 403.5t398 149.5q193 0 316.5 -114.5t140.5 -320.5h-682q-4 -87 16 -171t61 -154t111 -113t158 -43q104 0 183 57.5t128 204.5l35 -10q-46 -218 -161.5 -316t-311.5 -98q-239 0 -393 147t-154 378zM418 698h354q5 75 -7.5 136.5t-50.5 103t-98 41.5 q-89 0 -141 -80t-57 -201zM494 1237l137 375h354l-471 -375h-20z" />
<glyph unicode="&#xea;" horiz-adv-x="1177" d="M86 496q0 254 155 403.5t398 149.5q193 0 316.5 -114.5t140.5 -320.5h-682q-4 -87 16 -171t61 -154t111 -113t158 -43q104 0 183 57.5t128 204.5l35 -10q-46 -218 -161.5 -316t-311.5 -98q-239 0 -393 147t-154 378zM260 1237l367 408l366 -408h-20l-346 164l-346 -164 h-21zM418 698h354q5 75 -7.5 136.5t-50.5 103t-98 41.5q-89 0 -141 -80t-57 -201z" />
<glyph unicode="&#xeb;" horiz-adv-x="1177" d="M86 496q0 254 155 403.5t398 149.5q193 0 316.5 -114.5t140.5 -320.5h-682q-4 -87 16 -171t61 -154t111 -113t158 -43q104 0 183 57.5t128 204.5l35 -10q-46 -218 -161.5 -316t-311.5 -98q-239 0 -393 147t-154 378zM211 1444q0 66 47 113t113 47t112.5 -47t46.5 -113 t-46.5 -113t-112.5 -47t-113 47t-47 113zM418 698h354q5 75 -7.5 136.5t-50.5 103t-98 41.5q-89 0 -141 -80t-57 -201zM709 1444q0 66 46.5 113t112.5 47t113 -47t47 -113t-47 -113t-113 -47t-112.5 47t-46.5 113z" />
<glyph unicode="&#xec;" d="M27 1612h354l137 -375h-20zM158 0v1026h313v-1026h-313z" />
<glyph unicode="&#xed;" d="M158 0v1026h313v-1026h-313zM170 1237l137 375h355l-472 -375h-20z" />
<glyph unicode="&#xee;" d="M-51 1237l366 408l367 -408h-20l-347 164l-346 -164h-20zM158 0v1026h313v-1026h-313z" />
<glyph unicode="&#xef;" d="M-94 1444q0 66 47 113t113 47t112.5 -47t46.5 -113t-46.5 -113t-112.5 -47t-113 47t-47 113zM158 0v1026h313v-1026h-313zM403 1444q0 66 47 113t113 47t113 -47t47 -113t-47 -113t-113 -47t-113 47t-47 113z" />
<glyph unicode="&#xf0;" horiz-adv-x="1388" d="M76 518q0 110 28.5 201.5t76 153t111.5 104t133 61.5t142 19q103 0 195.5 -53.5t144.5 -153.5q-90 90 -225 90q-262 0 -262 -428q0 -217 68.5 -340t201.5 -123q71 0 123 40t80 108.5t40.5 146t12.5 166.5q0 591 -387 930l-244 -133l-45 79l211 117q-119 86 -270 152 l12 33q183 -51 355 -132l268 148l45 -82l-213 -117q285 -158 444.5 -383.5t159.5 -507.5q0 -293 -156.5 -468t-431.5 -175q-279 0 -448.5 151t-169.5 396z" />
<glyph unicode="&#xf1;" horiz-adv-x="1271" d="M158 0v1026h313v-1026h-313zM332 1253l96 299h528l93 117l14 -8l-96 -299h-529l-92 -117zM471 758q35 153 128 222t222 69q324 0 324 -396v-653h-314v633q0 132 -45 189t-118 57q-138 0 -197 -121z" />
<glyph unicode="&#xf2;" horiz-adv-x="1294" d="M86 510q0 113 39.5 212t111 171.5t177.5 114t233 41.5t233 -41.5t177.5 -114t111 -171.5t39.5 -212t-39.5 -212t-111 -171.5t-177.5 -114t-233 -41.5t-233 41.5t-177.5 114t-111 171.5t-39.5 212zM340 1612h354l137 -375h-20zM414 510q0 -68 5.5 -128t21 -124t40 -109 t67.5 -74.5t99 -29.5t99 29.5t68 74.5t40.5 109t21 124t5.5 128t-5.5 128t-21 124t-40.5 109t-68 74.5t-99 29.5t-99 -29.5t-67.5 -74.5t-40 -109t-21 -124t-5.5 -128z" />
<glyph unicode="&#xf3;" horiz-adv-x="1294" d="M86 510q0 113 39.5 212t111 171.5t177.5 114t233 41.5t233 -41.5t177.5 -114t111 -171.5t39.5 -212t-39.5 -212t-111 -171.5t-177.5 -114t-233 -41.5t-233 41.5t-177.5 114t-111 171.5t-39.5 212zM414 510q0 -68 5.5 -128t21 -124t40 -109t67.5 -74.5t99 -29.5t99 29.5 t68 74.5t40.5 109t21 124t5.5 128t-5.5 128t-21 124t-40.5 109t-68 74.5t-99 29.5t-99 -29.5t-67.5 -74.5t-40 -109t-21 -124t-5.5 -128zM524 1237l138 375h354l-471 -375h-21z" />
<glyph unicode="&#xf4;" horiz-adv-x="1294" d="M86 510q0 113 39.5 212t111 171.5t177.5 114t233 41.5t233 -41.5t177.5 -114t111 -171.5t39.5 -212t-39.5 -212t-111 -171.5t-177.5 -114t-233 -41.5t-233 41.5t-177.5 114t-111 171.5t-39.5 212zM281 1237l366 408l367 -408h-21l-346 164l-346 -164h-20zM414 510 q0 -68 5.5 -128t21 -124t40 -109t67.5 -74.5t99 -29.5t99 29.5t68 74.5t40.5 109t21 124t5.5 128t-5.5 128t-21 124t-40.5 109t-68 74.5t-99 29.5t-99 -29.5t-67.5 -74.5t-40 -109t-21 -124t-5.5 -128z" />
<glyph unicode="&#xf5;" horiz-adv-x="1294" d="M86 510q0 113 39.5 212t111 171.5t177.5 114t233 41.5t233 -41.5t177.5 -114t111 -171.5t39.5 -212t-39.5 -212t-111 -171.5t-177.5 -114t-233 -41.5t-233 41.5t-177.5 114t-111 171.5t-39.5 212zM281 1253l96 299h528l92 117l15 -8l-97 -299h-528l-92 -117zM414 510 q0 -68 5.5 -128t21 -124t40 -109t67.5 -74.5t99 -29.5t99 29.5t68 74.5t40.5 109t21 124t5.5 128t-5.5 128t-21 124t-40.5 109t-68 74.5t-99 29.5t-99 -29.5t-67.5 -74.5t-40 -109t-21 -124t-5.5 -128z" />
<glyph unicode="&#xf6;" horiz-adv-x="1294" d="M86 510q0 113 39.5 212t111 171.5t177.5 114t233 41.5t233 -41.5t177.5 -114t111 -171.5t39.5 -212t-39.5 -212t-111 -171.5t-177.5 -114t-233 -41.5t-233 41.5t-177.5 114t-111 171.5t-39.5 212zM238 1444q0 66 46.5 113t112.5 47t113 -47t47 -113t-47 -113t-113 -47 t-112.5 47t-46.5 113zM414 510q0 -68 5.5 -128t21 -124t40 -109t67.5 -74.5t99 -29.5t99 29.5t68 74.5t40.5 109t21 124t5.5 128t-5.5 128t-21 124t-40.5 109t-68 74.5t-99 29.5t-99 -29.5t-67.5 -74.5t-40 -109t-21 -124t-5.5 -128zM735 1444q0 66 47 113t113 47t113 -47 t47 -113t-47 -113t-113 -47t-113 47t-47 113z" />
<glyph unicode="&#xf7;" horiz-adv-x="1081" d="M57 451v122h967v-122h-967zM455 117v188h178v-188h-178zM455 723v188h178v-188h-178z" />
<glyph unicode="&#xf8;" horiz-adv-x="1294" d="M80 510q0 113 39.5 212t111 171.5t177.5 114t233 41.5q209 0 356 -109l125 133l49 -45l-122 -131q153 -153 153 -387q0 -113 -39.5 -212t-111 -171.5t-177.5 -114t-233 -41.5q-216 0 -358 111l-148 -156l-47 45l145 154q-153 150 -153 385zM408 510q0 -92 12 -184 l424 450q-54 199 -203 199q-56 0 -99 -29.5t-67.5 -74.5t-40 -109t-21 -124t-5.5 -128zM436 246q54 -201 205 -201q56 0 99 29.5t67.5 74.5t40 109t21 124t5.5 128q0 96 -12 188z" />
<glyph unicode="&#xf9;" horiz-adv-x="1271" d="M127 367v659h313v-713q0 -207 150 -207q81 0 128.5 32.5t82.5 99.5q-85 -267 -350 -267q-76 0 -134.5 24t-93.5 62t-57.5 91.5t-30.5 106t-8 112.5zM307 1612h355l137 -375h-21zM801 0v1026h313v-1026h-313z" />
<glyph unicode="&#xfa;" horiz-adv-x="1271" d="M127 367v659h313v-713q0 -207 150 -207q81 0 128.5 32.5t82.5 99.5q-85 -267 -350 -267q-76 0 -134.5 24t-93.5 62t-57.5 91.5t-30.5 106t-8 112.5zM535 1237l137 375h354l-471 -375h-20zM801 0v1026h313v-1026h-313z" />
<glyph unicode="&#xfb;" horiz-adv-x="1271" d="M127 367v659h313v-713q0 -207 150 -207q81 0 128.5 32.5t82.5 99.5q-85 -267 -350 -267q-76 0 -134.5 24t-93.5 62t-57.5 91.5t-30.5 106t-8 112.5zM268 1237l367 408l366 -408h-20l-346 164l-346 -164h-21zM801 0v1026h313v-1026h-313z" />
<glyph unicode="&#xfc;" horiz-adv-x="1271" d="M127 367v659h313v-713q0 -207 150 -207q81 0 128.5 32.5t82.5 99.5q-85 -267 -350 -267q-76 0 -134.5 24t-93.5 62t-57.5 91.5t-30.5 106t-8 112.5zM227 1444q0 66 47 113t113 47t113 -47t47 -113t-47 -113t-113 -47t-113 47t-47 113zM725 1444q0 66 47 113t113 47 t112.5 -47t46.5 -113t-46.5 -113t-112.5 -47t-113 47t-47 113zM801 0v1026h313v-1026h-313z" />
<glyph unicode="&#xfd;" horiz-adv-x="1163" d="M14 1026h357l317 -707l322 707h139l-715 -1524h-139l223 461zM561 1237l137 375h355l-471 -375h-21z" />
<glyph unicode="&#xfe;" horiz-adv-x="1359" d="M158 -496v2108h313v-2108h-313zM471 180q82 -76 184 -76q127 0 209 114.5t82 291.5t-82 291t-209 114q-104 0 -184 -75q46 103 124 156t202 53q210 0 343.5 -150t133.5 -389q0 -228 -137 -383.5t-344 -155.5q-124 0 -199.5 52.5t-122.5 156.5z" />
<glyph unicode="&#xff;" horiz-adv-x="1163" d="M14 1026h357l317 -707l322 707h139l-715 -1524h-139l223 461zM274 1444q0 66 47 113t113 47t113 -47t47 -113t-47 -113t-113 -47t-113 47t-47 113zM772 1444q0 66 47 113t113 47t113 -47t47 -113t-47 -113t-113 -47t-113 47t-47 113z" />
<glyph unicode="&#x152;" horiz-adv-x="2646" d="M106 805q0 250 114.5 440.5t314 291.5t452.5 101q297 0 488 -176v150h1095v-117h-760v-604h682v-117h-682v-657h760v-117h-1095v147q-191 -176 -488 -176q-253 0 -452.5 101t-314 292t-114.5 441zM461 805q0 -187 42 -331t115.5 -230.5t166.5 -130t202 -43.5 q87 0 164 26.5t144 84.5t115 143t75.5 208t27.5 273t-27.5 273t-75.5 208t-115 143t-144 84.5t-164 26.5q-109 0 -202 -43.5t-166.5 -130t-115.5 -230.5t-42 -331z" />
<glyph unicode="&#x153;" horiz-adv-x="1931" d="M86 510q0 113 39.5 212t111 171.5t177.5 114t233 41.5q240 0 389 -146q146 146 383 146q193 0 316.5 -114.5t140.5 -320.5h-682q-4 -87 16 -171t61 -154t111 -113t158 -43q209 0 311 238l35 -17q-66 -198 -179.5 -290.5t-293.5 -92.5q-232 0 -379 144 q-147 -144 -387 -144q-127 0 -233 41.5t-177.5 114t-111 171.5t-39.5 212zM414 510q0 -68 5.5 -128t21 -124t40 -109t67.5 -74.5t99 -29.5t99 29.5t68 74.5t40.5 109t21 124t5.5 128t-5.5 128t-21 124t-40.5 109t-68 74.5t-99 29.5t-99 -29.5t-67.5 -74.5t-40 -109t-21 -124 t-5.5 -128zM1198 698h354q5 76 -7.5 137t-50 102.5t-97.5 41.5q-89 0 -141.5 -80t-57.5 -201z" />
<glyph unicode="&#x178;" horiz-adv-x="1470" d="M14 1612h377l428 -813l492 813h145l-584 -975v-637h-335v639zM387 1868q0 66 47 113t113 47t113 -47t47 -113t-47 -113t-113 -47t-113 47t-47 113zM926 1868q0 66 46.5 113t112.5 47t113 -47t47 -113t-47 -113t-113 -47t-112.5 47t-46.5 113z" />
<glyph unicode="&#x2c6;" horiz-adv-x="831" d="M49 1237l367 408l366 -408h-20l-346 164l-346 -164h-21z" />
<glyph unicode="&#x2dc;" horiz-adv-x="829" d="M49 1253l96 299h529l92 117l14 -8l-96 -299h-528l-93 -117z" />
<glyph unicode="&#x2000;" horiz-adv-x="1065" />
<glyph unicode="&#x2001;" horiz-adv-x="2130" />
<glyph unicode="&#x2002;" horiz-adv-x="1065" />
<glyph unicode="&#x2003;" horiz-adv-x="2130" />
<glyph unicode="&#x2004;" horiz-adv-x="710" />
<glyph unicode="&#x2005;" horiz-adv-x="532" />
<glyph unicode="&#x2006;" horiz-adv-x="355" />
<glyph unicode="&#x2007;" horiz-adv-x="355" />
<glyph unicode="&#x2008;" horiz-adv-x="266" />
<glyph unicode="&#x2009;" horiz-adv-x="426" />
<glyph unicode="&#x200a;" horiz-adv-x="118" />
<glyph unicode="&#x2010;" horiz-adv-x="718" d="M96 436v166h527v-166h-527z" />
<glyph unicode="&#x2011;" horiz-adv-x="718" d="M96 436v166h527v-166h-527z" />
<glyph unicode="&#x2012;" horiz-adv-x="718" d="M96 436v166h527v-166h-527z" />
<glyph unicode="&#x2013;" horiz-adv-x="894" d="M57 457v123h779v-123h-779z" />
<glyph unicode="&#x2014;" horiz-adv-x="1314" d="M55 457v123h1205v-123h-1205z" />
<glyph unicode="&#x2018;" horiz-adv-x="634" d="M117 1184q0 80 38 168t111 165t164 117l6 -14q-45 -34 -77.5 -116t-32.5 -146q87 0 139.5 -53t52.5 -138t-57.5 -142.5t-143.5 -57.5q-91 0 -145.5 59.5t-54.5 157.5z" />
<glyph unicode="&#x2019;" horiz-adv-x="634" d="M117 1434q0 85 57 142.5t143 57.5q91 0 146 -59.5t55 -157.5q0 -80 -38 -168t-111 -165t-164 -117l-6 14q45 34 77.5 116t32.5 146q-87 0 -139.5 53t-52.5 138z" />
<glyph unicode="&#x201a;" horiz-adv-x="634" d="M117 172q0 85 57 143t143 58q91 0 146 -59.5t55 -157.5q0 -80 -38 -168t-111 -165.5t-164 -117.5l-6 14q45 34 77.5 116.5t32.5 146.5q-87 0 -139.5 52.5t-52.5 137.5z" />
<glyph unicode="&#x201c;" horiz-adv-x="1122" d="M117 1184q0 80 38 168t111 165t164 117l6 -14q-45 -34 -77.5 -116t-32.5 -146q87 0 139.5 -53t52.5 -138t-57.5 -142.5t-143.5 -57.5q-91 0 -145.5 59.5t-54.5 157.5zM604 1184q0 80 38.5 168t111.5 165t164 117l6 -14q-45 -34 -78 -116t-33 -146q87 0 140 -53t53 -138 t-57.5 -142.5t-143.5 -57.5q-91 0 -146 59.5t-55 157.5z" />
<glyph unicode="&#x201d;" horiz-adv-x="1122" d="M117 1434q0 85 57 142.5t143 57.5q91 0 146 -59.5t55 -157.5q0 -80 -38 -168t-111 -165t-164 -117l-6 14q45 34 77.5 116t32.5 146q-87 0 -139.5 53t-52.5 138zM604 1434q0 85 57.5 142.5t143.5 57.5q91 0 146 -59.5t55 -157.5q0 -80 -38.5 -168t-111.5 -165t-164 -117 l-6 14q45 34 78 116t33 146q-87 0 -140 53t-53 138z" />
<glyph unicode="&#x201e;" horiz-adv-x="1122" d="M117 172q0 85 57 143t143 58q91 0 146 -59.5t55 -157.5q0 -80 -38 -168t-111 -165.5t-164 -117.5l-6 14q45 34 77.5 116.5t32.5 146.5q-87 0 -139.5 52.5t-52.5 137.5zM604 172q0 85 57.5 143t143.5 58q91 0 146 -59.5t55 -157.5q0 -80 -38.5 -168t-111.5 -165.5 t-164 -117.5l-6 14q45 34 78 116.5t33 146.5q-87 0 -140 52.5t-53 137.5z" />
<glyph unicode="&#x2022;" horiz-adv-x="837" d="M76 530q0 139 99 238.5t237 99.5q148 0 249 -98.5t101 -239.5q0 -148 -100.5 -248t-249.5 -100q-139 0 -237.5 100.5t-98.5 247.5z" />
<glyph unicode="&#x2026;" horiz-adv-x="1929" d="M117 172q0 83 58.5 142t141.5 59t142 -59t59 -142t-59 -142t-142 -59t-141.5 59t-58.5 142zM764 172q0 83 59 142t142 59t141.5 -59t58.5 -142t-58.5 -142t-141.5 -59t-142 59t-59 142zM1411 172q0 83 59 142t142 59t141.5 -59t58.5 -142t-58.5 -142t-141.5 -59t-142 59 t-59 142z" />
<glyph unicode="&#x202f;" horiz-adv-x="426" />
<glyph unicode="&#x2039;" horiz-adv-x="665" d="M55 512l381 438h92l-188 -438l188 -440h-92z" />
<glyph unicode="&#x203a;" horiz-adv-x="667" d="M137 72l191 440l-191 438h94l381 -438l-381 -440h-94z" />
<glyph unicode="&#x205f;" horiz-adv-x="532" />
<glyph unicode="&#x20ac;" horiz-adv-x="1884" d="M14 539l62 112h256q-4 62 -4 90q0 53 6 105h-320l62 112h276q22 95 62.5 175t107.5 151t155 120.5t210.5 78t269.5 28.5q298 0 561 -143v-414h-26q-69 235 -200.5 351t-342.5 116q-206 0 -321 -111.5t-150 -351.5h508l-62 -112h-456q-2 -33 -2 -105q0 -59 2 -90h366 l-61 -112h-295q31 -249 145.5 -363.5t325.5 -114.5q212 0 347.5 116.5t203.5 350.5h26v-413q-152 -78 -282 -111t-287 -33q-149 0 -273 29.5t-213 80.5t-156 124t-107 155.5t-60 178.5h-334z" />
<glyph unicode="&#x2122;" horiz-adv-x="1634" d="M29 1497v115h612v-115h-246v-647h-123v647h-243zM721 850v762h209l215 -615l207 615h207v-762h-121v639l-230 -639h-137l-229 639v-639h-121z" />
<glyph unicode="&#x25fc;" horiz-adv-x="1024" d="M0 0v1024h1024v-1024h-1024z" />
<glyph unicode="&#xfb01;" horiz-adv-x="1411" d="M6 893v133h207q5 122 33.5 224t74 172.5t105 120t126 72.5t136.5 23q92 0 145.5 -38.5t53.5 -104.5q0 -54 -32 -90.5t-91 -36.5q-38 0 -65 13.5t-43.5 32t-32 37.5t-40 32.5t-57.5 13.5q-54 0 -80 -43t-22.5 -112t26.5 -151.5t62 -164.5h307v-133h-293v-893h-313v893 h-207zM915 1407q0 75 54 128.5t129 53.5t128.5 -53.5t53.5 -128.5t-53.5 -128.5t-128.5 -53.5t-129 53.5t-54 128.5zM940 0v1026h313v-1026h-313z" />
<glyph unicode="&#xfb02;" horiz-adv-x="1447" d="M6 893v133h207q5 122 33.5 224t74 172.5t105 120t126 72.5t136.5 23q92 0 145.5 -38.5t53.5 -104.5q0 -54 -32 -90.5t-91 -36.5q-38 0 -65 13.5t-43.5 32t-32 37.5t-40 32.5t-57.5 13.5q-54 0 -80 -43t-22.5 -112t26.5 -151.5t62 -164.5h307v-133h-293v-893h-313v893 h-207zM977 0v1612h313v-1612h-313z" />
</font>
</defs>
</svg>
